<?xml version="1.0" standalone="no"?>
  <!DOCTYPE svg PUBLIC "-//W3C//DTD SVG 1.1//EN" "http://www.w3.org/Graphics/SVG/1.1/DTD/svg11.dtd" >
  <svg>
  <metadata>
  Created by font-carrier
  </metadata>
  <defs>
  <font id="BebasNeueBold" horiz-adv-x="1000" vert-adv-y="1000" >
    <font-face
      
      font-family="Bebas Neue Bold"
      
      font-weight="400"
      
      font-stretch="normal"
      
      units-per-em="1000"
      
      ascent="750"
      
      descent="-250"
      
    />
      <missing-glyph />

      

      
      <glyph glyph-name="uni23" unicode="&#x23;" d="M219 200L154 200L133 0L43 0L64 200L15 200L23 278L72 278L91 461L41 461L49 539L99 539L116 700L206 700L189 539L254 539L271 700L361 700L344 539L395 539L387 461L336 461L317 278L368 278L360 200L309 200L288 0L198 0L219 200M162 278L227 278L246 461L181 461L162 278Z"  horiz-adv-x="410" vert-adv-y="1000"  />

      
      <glyph glyph-name="uni24" unicode="&#x24;" d="M37 522Q37 593 66 636.50Q95 680 153 693L153 745L243 745L243 693Q302 681 331.50 637.50Q361 594 361 522L361 500L257 500L257 529Q257 567 242.50 582.50Q228 598 202 598Q176 598 161.50 582.50Q147 567 147 529Q147 493 163 467Q179 441 203 418.50Q227 396 254.50 374.50Q282 353 306 326Q330 299 346 263.50Q362 228 362 178Q362 106 332 62Q302 18 243 6L243-45L153-45L153 6Q93 18 63.50 62Q34 106 34 178L34 226L138 226L138 171Q138 133 153.50 118Q169 103 195 103Q221 103 236.50 118Q252 133 252 171Q252 207 236 233Q220 259 196 281.50Q172 304 144.50 325.50Q117 347 93 374Q69 401 53 436.50Q37 472 37 522Z"  horiz-adv-x="396" vert-adv-y="1000"  />

      
      <glyph glyph-name="uni25" unicode="&#x25;" d="M104 358Q104 314 140 314Q157 314 166.50 324.50Q176 335 176 358L176 598Q176 621 166.50 631.50Q157 642 140 642Q104 642 104 598L104 358M34 593Q34 647 61 676Q88 705 140 705Q192 705 219 676Q246 647 246 593L246 363Q246 309 219 280Q192 251 140 251Q88 251 61 280Q34 309 34 363L34 593M416 700L481 700L205 0L140 0L416 700M451 102Q451 58 487 58Q504 58 513.50 68.50Q523 79 523 102L523 342Q523 365 513.50 375.50Q504 386 487 386Q451 386 451 342L451 102M381 337Q381 391 408 420Q435 449 487 449Q539 449 566 420Q593 391 593 337L593 107Q593 53 566 24Q539-5 487-5Q435-5 408 24Q381 53 381 107L381 337Z"  horiz-adv-x="627" vert-adv-y="1000"  />

      
      <glyph glyph-name="uni26" unicode="&#x26;" d="M41 223Q41 277 58.50 314.50Q76 352 117 370Q41 402 41 514L41 527Q41 612 81.50 656Q122 700 205 700L331 700L331 600L207 600Q181 600 166 585Q151 570 151 532L151 489Q151 447 168.50 431Q186 415 217 415L265 415L265 493L375 493L375 415L404 415L404 315L375 315L375 85Q375 59 377 39.50Q379 20 387 0L275 0Q271 11 269 21.50Q267 32 265 55Q236-8 163-8Q102-8 71.50 33Q41 74 41 152L41 223M151 161Q151 123 166.50 107.50Q182 92 208 92Q233 92 248 106Q263 120 265 153L265 315L223 315Q185 315 168 295Q151 275 151 226L151 161Z"  horiz-adv-x="414" vert-adv-y="1000"  />

      
      <glyph glyph-name="uni27" unicode="&#x27;" d="M37 700L143 700L127 494L52 494L37 700Z"  horiz-adv-x="180" vert-adv-y="1000"  />

      
      <glyph glyph-name="uni28" unicode="&#x28;" d="M235 700L235 610L208 610Q182 610 169.50 597.50Q157 585 157 547L157 153Q157 115 169.50 102.50Q182 90 208 90L235 90L235 0L201 0Q160 0 130.50 8Q101 16 82.50 34.50Q64 53 55.50 82Q47 111 47 153L47 547Q47 589 55.50 618Q64 647 82.50 665.50Q101 684 130.50 692Q160 700 201 700L235 700Z"  horiz-adv-x="251" vert-adv-y="1000"  />

      
      <glyph glyph-name="uni29" unicode="&#x29;" d="M50 700Q132 700 168 665.50Q204 631 204 547L204 153Q204 69 168 34.50Q132 0 50 0L16 0L16 90L43 90Q69 90 81.50 102.50Q94 115 94 153L94 547Q94 585 81.50 597.50Q69 610 43 610L16 610L16 700L50 700Z"  horiz-adv-x="251" vert-adv-y="1000"  />

      
      <glyph glyph-name="uni2a" unicode="&#x2a;" d="M179 535L153 700L243 700L217 535L366 610L394 525L230 497L347 380L275 327L198 475L121 327L49 380L166 497L2 525L30 610L179 535Z"  horiz-adv-x="396" vert-adv-y="1000"  />

      
      <glyph glyph-name="uni2b" unicode="&#x2b;" d="M237 389L371 389L371 311L237 311L237 174L159 174L159 311L25 311L25 389L159 389L159 524L237 524L237 389Z"  horiz-adv-x="396" vert-adv-y="1000"  />

      
      <glyph glyph-name="uni2c" unicode="&#x2c;" d="M40 0L40 106L146 106L146 11L98-100L53-100L82 0L40 0Z"  horiz-adv-x="186" vert-adv-y="1000"  />

      
      <glyph glyph-name="uni2d" unicode="&#x2d;" d="M35 400L235 400L235 300L35 300L35 400Z"  horiz-adv-x="270" vert-adv-y="1000"  />

      
      <glyph glyph-name="uni2e" unicode="&#x2e;" d="M146 106L146 0L40 0L40 106L146 106Z"  horiz-adv-x="186" vert-adv-y="1000"  />

      
      <glyph glyph-name="uni2f" unicode="&#x2f;" d="M281 700L376 700L100 0L5 0L281 700Z"  horiz-adv-x="381" vert-adv-y="1000"  />

      
      <glyph glyph-name="uni30" unicode="&#x30;" d="M141 161Q141 123 156.50 107.50Q172 92 198 92Q224 92 239.50 107.50Q255 123 255 161L255 539Q255 577 239.50 592.50Q224 608 198 608Q172 608 156.50 592.50Q141 577 141 539L141 161M31 532Q31 617 74 662.50Q117 708 198 708Q279 708 322 662.50Q365 617 365 532L365 168Q365 83 322 37.50Q279-8 198-8Q117-8 74 37.50Q31 83 31 168L31 532Z"  horiz-adv-x="396" vert-adv-y="1000"  />

      
      <glyph glyph-name="uni31" unicode="&#x31;" d="M108 612Q140 612 160.50 619Q181 626 194 638Q207 650 215 666Q223 682 229 700L303 700L303 0L193 0L193 534L108 534L108 612Z"  horiz-adv-x="396" vert-adv-y="1000"  />

      
      <glyph glyph-name="uni32" unicode="&#x32;" d="M258 528Q258 575 242.50 591.50Q227 608 201 608Q175 608 159.50 592.50Q144 577 144 539L144 464L40 464L40 532Q40 617 81.50 662.50Q123 708 204 708Q285 708 326.50 662.50Q368 617 368 532Q368 477 352 432.50Q336 388 311.50 351.50Q287 315 258.50 284Q230 253 205.50 225Q181 197 165 170.50Q149 144 149 115Q149 105 150 100L358 100L358 0L40 0L40 86Q40 137 56 176Q72 215 96.50 247.50Q121 280 149 308.50Q177 337 201.50 369Q226 401 242 439Q258 477 258 528Z"  horiz-adv-x="396" vert-adv-y="1000"  />

      
      <glyph glyph-name="uni33" unicode="&#x33;" d="M252 528Q252 575 236.50 591.50Q221 608 195 608Q169 608 153.50 592.50Q138 577 138 539L138 494L34 494L34 532Q34 617 75.50 662.50Q117 708 198 708Q279 708 320.50 662.50Q362 617 362 532L362 514Q362 402 285 370Q327 352 344.50 314.50Q362 277 362 223L362 168Q362 83 320.50 37.50Q279-8 198-8Q117-8 75.50 37.50Q34 83 34 168L34 226L138 226L138 161Q138 123 153.50 107.50Q169 92 195 92Q221 92 236.50 108Q252 124 252 171L252 226Q252 275 235 295Q218 315 180 315L143 315L143 415L186 415Q217 415 234.50 431Q252 447 252 489L252 528Z"  horiz-adv-x="396" vert-adv-y="1000"  />

      
      <glyph glyph-name="uni34" unicode="&#x34;" d="M14 227L214 700L334 700L334 227L386 227L386 127L334 127L334 0L226 0L226 127L14 127L14 227M226 227L226 490L115 227L226 227Z"  horiz-adv-x="396" vert-adv-y="1000"  />

      
      <glyph glyph-name="uni35" unicode="&#x35;" d="M139 226L139 161Q139 123 154.50 108Q170 93 196 93Q222 93 237.50 108Q253 123 253 161L253 315Q253 353 237.50 368.50Q222 384 196 384Q170 384 154.50 368.50Q139 353 139 315L139 294L35 294L55 700L345 700L345 600L154 600L145 433Q176 484 241 484Q302 484 332.50 443Q363 402 363 324L363 168Q363 83 321.50 37.50Q280-8 199-8Q118-8 76.50 37.50Q35 83 35 168L35 226L139 226Z"  horiz-adv-x="396" vert-adv-y="1000"  />

      
      <glyph glyph-name="uni36" unicode="&#x36;" d="M33 526Q33 615 74 661.50Q115 708 201 708Q282 708 323.50 662.50Q365 617 365 532L365 514L261 514L261 539Q261 577 245.50 592.50Q230 608 204 608Q175 608 159 590Q143 572 143 522L143 394Q172 456 245 456Q306 456 336.50 415Q367 374 367 296L367 168Q367 83 324 37.50Q281-8 200-8Q119-8 76 37.50Q33 83 33 168L33 526M200 356Q174 356 158.50 340.50Q143 325 143 287L143 161Q143 123 158.50 108Q174 93 200 93Q226 93 241.50 108Q257 123 257 161L257 287Q257 325 241.50 340.50Q226 356 200 356Z"  horiz-adv-x="396" vert-adv-y="1000"  />

      
      <glyph glyph-name="uni37" unicode="&#x37;" d="M363 700L363 604L201 0L91 0L252 600L33 600L33 700L363 700Z"  horiz-adv-x="396" vert-adv-y="1000"  />

      
      <glyph glyph-name="uni38" unicode="&#x38;" d="M370 168Q370 83 326 37.50Q282-8 198-8Q114-8 70 37.50Q26 83 26 168L26 223Q26 274 42 311.50Q58 349 94 369Q26 406 26 510L26 532Q26 617 70 662.50Q114 708 198 708Q282 708 326 662.50Q370 617 370 532L370 510Q370 407 302 369Q338 349 354 311.50Q370 274 370 223L370 168M136 171Q136 124 154 108Q172 92 198 92Q224 92 241.50 108Q259 124 260 171L260 236Q260 278 243.50 296.50Q227 315 198 315Q169 315 152.50 296.50Q136 278 136 236L136 171M136 489Q136 447 153.50 431Q171 415 198 415Q224 415 242 431Q260 447 260 489L260 528Q260 575 242 591.50Q224 608 198 608Q172 608 154 591.50Q136 575 136 528L136 489Z"  horiz-adv-x="396" vert-adv-y="1000"  />

      
      <glyph glyph-name="uni39" unicode="&#x39;" d="M363 174Q363 85 322 38.50Q281-8 195-8Q114-8 72.50 37.50Q31 83 31 168L31 186L135 186L135 161Q135 123 150.50 107.50Q166 92 192 92Q221 92 237 110Q253 128 253 178L253 306Q224 244 151 244Q90 244 59.50 285Q29 326 29 404L29 532Q29 617 72 662.50Q115 708 196 708Q277 708 320 662.50Q363 617 363 532L363 174M196 344Q222 344 237.50 359.50Q253 375 253 413L253 539Q253 577 237.50 592Q222 607 196 607Q170 607 154.50 592Q139 577 139 539L139 413Q139 375 154.50 359.50Q170 344 196 344Z"  horiz-adv-x="396" vert-adv-y="1000"  />

      
      <glyph glyph-name="uni3a" unicode="&#x3a;" d="M146 106L146 0L40 0L40 106L146 106M146 487L146 381L40 381L40 487L146 487Z"  horiz-adv-x="186" vert-adv-y="1000"  />

      
      <glyph glyph-name="uni3b" unicode="&#x3b;" d="M40 0L40 106L146 106L146 11L98-100L53-100L82 0L40 0M146 487L146 381L40 381L40 487L146 487Z"  horiz-adv-x="186" vert-adv-y="1000"  />

      
      <glyph glyph-name="uni3c" unicode="&#x3c;" d="M30 311L30 389L356 509L356 430L132 350L356 270L356 191L30 311Z"  horiz-adv-x="396" vert-adv-y="1000"  />

      
      <glyph glyph-name="uni3d" unicode="&#x3d;" d="M361 308L361 230L35 230L35 308L361 308M361 470L361 392L35 392L35 470L361 470Z"  horiz-adv-x="396" vert-adv-y="1000"  />

      
      <glyph glyph-name="uni3e" unicode="&#x3e;" d="M40 191L40 270L264 350L40 430L40 509L366 389L366 311L40 191Z"  horiz-adv-x="396" vert-adv-y="1000"  />

      
      <glyph glyph-name="uni3f" unicode="&#x3f;" d="M120 155Q114 173 114 198Q114 236 123 264Q132 292 145 315.50Q158 339 174 360.50Q190 382 203 407Q216 432 225 463.50Q234 495 234 539Q234 577 219.50 592.50Q205 608 179 608Q153 608 138.50 592.50Q124 577 124 539L124 463L20 463L20 532Q20 617 60.50 662.50Q101 708 182 708Q263 708 303.50 662.50Q344 617 344 532Q344 486 334.50 452.50Q325 419 310.50 392Q296 365 279 342.50Q262 320 247.50 298Q233 276 223.50 251Q214 226 214 194Q214 172 218 155L120 155M221 106L221 0L115 0L115 106L221 106Z"  horiz-adv-x="360" vert-adv-y="1000"  />

      
      <glyph glyph-name="uni40" unicode="&#x40;" d="M476 127Q438 127 414.50 142.50Q391 158 388 193Q357 130 291 133Q238 135 215.50 174.50Q193 214 201 287L212 388Q220 462 250.50 500Q281 538 334 536Q396 535 416 474L422 532L518 532L488 243Q485 218 508 218Q529 218 544 239Q559 260 569 293Q579 326 583.50 366Q588 406 588 444Q588 491 576.50 530Q565 569 540.50 596.50Q516 624 478.50 639.50Q441 655 389 655Q322 655 271.50 629Q221 603 187 555Q153 507 135.50 438.50Q118 370 118 285Q118 164 175 94Q232 24 351 24Q379 24 405 27Q431 30 456 37.50Q481 45 506.50 58.50Q532 72 558 92L550-4Q500-37 450.50-48.50Q401-60 345-60Q261-60 200-34.50Q139-9 100 37.50Q61 84 42.50 148Q24 212 24 290Q24 383 47 464.50Q70 546 116 607.50Q162 669 231 704.50Q300 740 393 740Q472 740 525.50 717Q579 694 611 654Q643 614 657 560.50Q671 507 671 446Q671 354 651.50 292.50Q632 231 602.50 194Q573 157 539 142Q505 127 476 127M298 292Q294 257 306 242Q318 227 341 226Q364 225 378.50 239.50Q393 254 397 289L407 384Q410 413 397 426.50Q384 440 364 440Q341 441 326 426.50Q311 412 307 377L298 292Z"  horiz-adv-x="689" vert-adv-y="1000"  />

      
      <glyph glyph-name="uni41" unicode="&#x41;" d="M396 0L285 0L266 127L131 127L112 0L11 0L123 700L284 700L396 0M145 222L251 222L198 576L145 222Z"  horiz-adv-x="407" vert-adv-y="1000"  />

      
      <glyph glyph-name="uni42" unicode="&#x42;" d="M206 700Q292 700 330.50 660Q369 620 369 539L369 514Q369 460 352 425Q335 390 298 373Q343 356 361.50 317.50Q380 279 380 223L380 166Q380 85 338 42.50Q296 0 213 0L40 0L40 700L206 700M150 315L150 100L213 100Q241 100 255.50 115Q270 130 270 169L270 230Q270 279 253.50 297Q237 315 199 315L150 315M150 600L150 415L193 415Q224 415 241.50 431Q259 447 259 489L259 528Q259 566 245.50 583Q232 600 203 600L150 600Z"  horiz-adv-x="406" vert-adv-y="1000"  />

      
      <glyph glyph-name="uni43" unicode="&#x43;" d="M359 261L359 168Q359 83 317.50 37.50Q276-8 195-8Q114-8 72.50 37.50Q31 83 31 168L31 532Q31 617 72.50 662.50Q114 708 195 708Q276 708 317.50 662.50Q359 617 359 532L359 464L255 464L255 539Q255 577 239.50 592.50Q224 608 198 608Q172 608 156.50 592.50Q141 577 141 539L141 161Q141 123 156.50 108Q172 93 198 93Q224 93 239.50 108Q255 123 255 161L255 261L359 261Z"  horiz-adv-x="386" vert-adv-y="1000"  />

      
      <glyph glyph-name="uni44" unicode="&#x44;" d="M40 700L214 700Q297 700 337.50 656Q378 612 378 527L378 173Q378 88 337.50 44Q297 0 214 0L40 0L40 700M150 600L150 100L212 100Q238 100 253 115Q268 130 268 168L268 532Q268 570 253 585Q238 600 212 600L150 600Z"  horiz-adv-x="408" vert-adv-y="1000"  />

      
      <glyph glyph-name="uni45" unicode="&#x45;" d="M150 405L301 405L301 305L150 305L150 100L340 100L340 0L40 0L40 700L340 700L340 600L150 600L150 405Z"  horiz-adv-x="368" vert-adv-y="1000"  />

      
      <glyph glyph-name="uni46" unicode="&#x46;" d="M150 389L292 389L292 289L150 289L150 0L40 0L40 700L331 700L331 600L150 600L150 389Z"  horiz-adv-x="344" vert-adv-y="1000"  />

      
      <glyph glyph-name="uni47" unicode="&#x47;" d="M205 390L359 390L359 168Q359 83 317.50 37.50Q276-8 195-8Q114-8 72.50 37.50Q31 83 31 168L31 532Q31 617 72.50 662.50Q114 708 195 708Q276 708 317.50 662.50Q359 617 359 532L359 464L255 464L255 539Q255 577 239.50 592.50Q224 608 198 608Q172 608 156.50 592.50Q141 577 141 539L141 161Q141 123 156.50 108Q172 93 198 93Q224 93 239.50 108Q255 123 255 161L255 290L205 290L205 390Z"  horiz-adv-x="390" vert-adv-y="1000"  />

      
      <glyph glyph-name="uni48" unicode="&#x48;" d="M150 0L40 0L40 700L150 700L150 400L275 400L275 700L387 700L387 0L275 0L275 300L150 300L150 0Z"  horiz-adv-x="427" vert-adv-y="1000"  />

      
      <glyph glyph-name="uni49" unicode="&#x49;" d="M40 700L150 700L150 0L40 0L40 700Z"  horiz-adv-x="190" vert-adv-y="1000"  />

      
      <glyph glyph-name="uni4a" unicode="&#x4a;" d="M10 100Q19 99 29 99Q39 99 48 99Q74 99 92.50 112Q111 125 111 166L111 700L221 700L221 174Q221 121 208 87Q195 53 173 33.50Q151 14 122.50 6Q94-2 63-2Q48-2 36-2Q24-2 10 0L10 100Z"  horiz-adv-x="256" vert-adv-y="1000"  />

      
      <glyph glyph-name="uni4b" unicode="&#x4b;" d="M184 279L150 215L150 0L40 0L40 700L150 700L150 395L294 700L404 700L251 388L404 0L291 0L184 279Z"  horiz-adv-x="414" vert-adv-y="1000"  />

      
      <glyph glyph-name="uni4c" unicode="&#x4c;" d="M40 700L150 700L150 100L331 100L331 0L40 0L40 700Z"  horiz-adv-x="339" vert-adv-y="1000"  />

      
      <glyph glyph-name="uni4d" unicode="&#x4d;" d="M273 203L348 700L501 700L501 0L397 0L397 502L321 0L217 0L135 495L135 0L39 0L39 700L192 700L273 203Z"  horiz-adv-x="541" vert-adv-y="1000"  />

      
      <glyph glyph-name="uni4e" unicode="&#x4e;" d="M138 507L138 0L39 0L39 700L177 700L290 281L290 700L388 700L388 0L275 0L138 507Z"  horiz-adv-x="427" vert-adv-y="1000"  />

      
      <glyph glyph-name="uni4f" unicode="&#x4f;" d="M141 161Q141 123 156.50 107.50Q172 92 198 92Q224 92 239.50 107.50Q255 123 255 161L255 539Q255 577 239.50 592.50Q224 608 198 608Q172 608 156.50 592.50Q141 577 141 539L141 161M31 532Q31 617 74 662.50Q117 708 198 708Q279 708 322 662.50Q365 617 365 532L365 168Q365 83 322 37.50Q279-8 198-8Q117-8 74 37.50Q31 83 31 168L31 532Z"  horiz-adv-x="396" vert-adv-y="1000"  />

      
      <glyph glyph-name="uni50" unicode="&#x50;" d="M202 700Q285 700 325.50 656Q366 612 366 527L366 436Q366 351 325.50 307Q285 263 202 263L150 263L150 0L40 0L40 700L202 700M150 600L150 363L202 363Q228 363 242 377Q256 391 256 429L256 534Q256 572 242 586Q228 600 202 600L150 600Z"  horiz-adv-x="382" vert-adv-y="1000"  />

      
      <glyph glyph-name="uni51" unicode="&#x51;" d="M31 532Q31 617 74 662.50Q117 708 198 708Q279 708 322 662.50Q365 617 365 532L365 168Q365 109 344 70Q348 60 354.50 57.50Q361 55 375 55L385 55L385-43L370-43Q333-43 309.50-30.50Q286-18 275 5Q258-1 239-4.50Q220-8 198-8Q117-8 74 37.50Q31 83 31 168L31 532M141 161Q141 123 156.50 107.50Q172 92 198 92Q224 92 239.50 107.50Q255 123 255 161L255 539Q255 577 239.50 592.50Q224 608 198 608Q172 608 156.50 592.50Q141 577 141 539L141 161Z"  horiz-adv-x="396" vert-adv-y="1000"  />

      
      <glyph glyph-name="uni52" unicode="&#x52;" d="M270 0Q268 7 266 13Q264 19 262.50 28Q261 37 260.50 51Q260 65 260 86L260 196Q260 245 243 265Q226 285 188 285L150 285L150 0L40 0L40 700L206 700Q292 700 330.50 660Q369 620 369 539L369 484Q369 376 297 342Q339 325 354.50 286.50Q370 248 370 193L370 85Q370 59 372 39.50Q374 20 382 0L270 0M150 600L150 385L193 385Q224 385 241.50 401Q259 417 259 459L259 528Q259 566 245.50 583Q232 600 203 600L150 600Z"  horiz-adv-x="402" vert-adv-y="1000"  />

      
      <glyph glyph-name="uni53" unicode="&#x53;" d="M26 532Q26 617 66.50 662.50Q107 708 188 708Q269 708 309.50 662.50Q350 617 350 532L350 510L246 510L246 539Q246 577 231.50 592.50Q217 608 191 608Q165 608 150.50 592.50Q136 577 136 539Q136 503 152 475.50Q168 448 192 423.50Q216 399 243.50 374.50Q271 350 295 321Q319 292 335 255Q351 218 351 168Q351 83 309.50 37.50Q268-8 187-8Q106-8 64.50 37.50Q23 83 23 168L23 211L127 211L127 161Q127 123 142.50 108Q158 93 184 93Q210 93 225.50 108Q241 123 241 161Q241 197 225 224.50Q209 252 185 276.50Q161 301 133.50 325.50Q106 350 82 379Q58 408 42 445Q26 482 26 532Z"  horiz-adv-x="374" vert-adv-y="1000"  />

      
      <glyph glyph-name="uni54" unicode="&#x54;" d="M8 700L348 700L348 600L233 600L233 0L123 0L123 600L8 600L8 700Z"  horiz-adv-x="356" vert-adv-y="1000"  />

      
      <glyph glyph-name="uni55" unicode="&#x55;" d="M145 700L145 160Q145 122 160.50 107Q176 92 202 92Q228 92 243.50 107Q259 122 259 160L259 700L363 700L363 167Q363 82 321.50 36.50Q280-9 199-9Q118-9 76.50 36.50Q35 82 35 167L35 700L145 700Z"  horiz-adv-x="398" vert-adv-y="1000"  />

      
      <glyph glyph-name="uni56" unicode="&#x56;" d="M206 129L290 700L391 700L283 0L119 0L11 700L122 700L206 129Z"  horiz-adv-x="402" vert-adv-y="1000"  />

      
      <glyph glyph-name="uni57" unicode="&#x57;" d="M284 373L244 0L93 0L15 700L122 700L181 148L234 700L340 700L395 144L452 700L548 700L470 0L324 0L284 373Z"  horiz-adv-x="563" vert-adv-y="1000"  />

      
      <glyph glyph-name="uni58" unicode="&#x58;" d="M407 700L292 360L415 0L299 0L209 277L118 0L15 0L138 360L23 700L137 700L220 442L305 700L407 700Z"  horiz-adv-x="430" vert-adv-y="1000"  />

      
      <glyph glyph-name="uni59" unicode="&#x59;" d="M143 232L4 700L119 700L203 381L287 700L392 700L253 232L253 0L143 0L143 232Z"  horiz-adv-x="396" vert-adv-y="1000"  />

      
      <glyph glyph-name="uni5a" unicode="&#x5a;" d="M345 700L345 602L136 100L345 100L345 0L23 0L23 98L232 600L33 600L33 700L345 700Z"  horiz-adv-x="370" vert-adv-y="1000"  />

      
      <glyph glyph-name="uni5b" unicode="&#x5b;" d="M47 700L229 700L229 610L157 610L157 90L229 90L229 0L47 0L47 700Z"  horiz-adv-x="251" vert-adv-y="1000"  />

      
      <glyph glyph-name="uni5c" unicode="&#x5c;" d="M376 0L281 0L5 700L100 700L376 0Z"  horiz-adv-x="381" vert-adv-y="1000"  />

      
      <glyph glyph-name="uni5d" unicode="&#x5d;" d="M204 0L22 0L22 90L94 90L94 610L22 610L22 700L204 700L204 0Z"  horiz-adv-x="251" vert-adv-y="1000"  />

      
      <glyph glyph-name="uni5e" unicode="&#x5e;" d="M159 700L237 700L376 390L288 390L198 600L108 390L20 390L159 700Z"  horiz-adv-x="396" vert-adv-y="1000"  />

      
      <glyph glyph-name="uni5f" unicode="&#x5f;" d="M0-10L500-10L500-90L0-90L0-10Z"  horiz-adv-x="500" vert-adv-y="1000"  />

      
      <glyph glyph-name="uni60" unicode="&#x60;" d="M157 848L225 737L146 737L44 848L157 848Z"  horiz-adv-x="250" vert-adv-y="1000"  />

      
      <glyph glyph-name="uni61" unicode="&#x61;" d="M396 0L285 0L266 127L131 127L112 0L11 0L123 700L284 700L396 0M145 222L251 222L198 576L145 222Z"  horiz-adv-x="407" vert-adv-y="1000"  />

      
      <glyph glyph-name="uni62" unicode="&#x62;" d="M206 700Q292 700 330.50 660Q369 620 369 539L369 514Q369 460 352 425Q335 390 298 373Q343 356 361.50 317.50Q380 279 380 223L380 166Q380 85 338 42.50Q296 0 213 0L40 0L40 700L206 700M150 315L150 100L213 100Q241 100 255.50 115Q270 130 270 169L270 230Q270 279 253.50 297Q237 315 199 315L150 315M150 600L150 415L193 415Q224 415 241.50 431Q259 447 259 489L259 528Q259 566 245.50 583Q232 600 203 600L150 600Z"  horiz-adv-x="406" vert-adv-y="1000"  />

      
      <glyph glyph-name="uni63" unicode="&#x63;" d="M359 261L359 168Q359 83 317.50 37.50Q276-8 195-8Q114-8 72.50 37.50Q31 83 31 168L31 532Q31 617 72.50 662.50Q114 708 195 708Q276 708 317.50 662.50Q359 617 359 532L359 464L255 464L255 539Q255 577 239.50 592.50Q224 608 198 608Q172 608 156.50 592.50Q141 577 141 539L141 161Q141 123 156.50 108Q172 93 198 93Q224 93 239.50 108Q255 123 255 161L255 261L359 261Z"  horiz-adv-x="386" vert-adv-y="1000"  />

      
      <glyph glyph-name="uni64" unicode="&#x64;" d="M40 700L214 700Q297 700 337.50 656Q378 612 378 527L378 173Q378 88 337.50 44Q297 0 214 0L40 0L40 700M150 600L150 100L212 100Q238 100 253 115Q268 130 268 168L268 532Q268 570 253 585Q238 600 212 600L150 600Z"  horiz-adv-x="408" vert-adv-y="1000"  />

      
      <glyph glyph-name="uni65" unicode="&#x65;" d="M150 405L301 405L301 305L150 305L150 100L340 100L340 0L40 0L40 700L340 700L340 600L150 600L150 405Z"  horiz-adv-x="368" vert-adv-y="1000"  />

      
      <glyph glyph-name="uni66" unicode="&#x66;" d="M150 389L292 389L292 289L150 289L150 0L40 0L40 700L331 700L331 600L150 600L150 389Z"  horiz-adv-x="344" vert-adv-y="1000"  />

      
      <glyph glyph-name="uni67" unicode="&#x67;" d="M205 390L359 390L359 168Q359 83 317.50 37.50Q276-8 195-8Q114-8 72.50 37.50Q31 83 31 168L31 532Q31 617 72.50 662.50Q114 708 195 708Q276 708 317.50 662.50Q359 617 359 532L359 464L255 464L255 539Q255 577 239.50 592.50Q224 608 198 608Q172 608 156.50 592.50Q141 577 141 539L141 161Q141 123 156.50 108Q172 93 198 93Q224 93 239.50 108Q255 123 255 161L255 290L205 290L205 390Z"  horiz-adv-x="390" vert-adv-y="1000"  />

      
      <glyph glyph-name="uni68" unicode="&#x68;" d="M150 0L40 0L40 700L150 700L150 400L275 400L275 700L387 700L387 0L275 0L275 300L150 300L150 0Z"  horiz-adv-x="427" vert-adv-y="1000"  />

      
      <glyph glyph-name="uni69" unicode="&#x69;" d="M40 700L150 700L150 0L40 0L40 700Z"  horiz-adv-x="190" vert-adv-y="1000"  />

      
      <glyph glyph-name="uni6a" unicode="&#x6a;" d="M10 100Q19 99 29 99Q39 99 48 99Q74 99 92.50 112Q111 125 111 166L111 700L221 700L221 174Q221 121 208 87Q195 53 173 33.50Q151 14 122.50 6Q94-2 63-2Q48-2 36-2Q24-2 10 0L10 100Z"  horiz-adv-x="256" vert-adv-y="1000"  />

      
      <glyph glyph-name="uni6b" unicode="&#x6b;" d="M184 279L150 215L150 0L40 0L40 700L150 700L150 395L294 700L404 700L251 388L404 0L291 0L184 279Z"  horiz-adv-x="414" vert-adv-y="1000"  />

      
      <glyph glyph-name="uni6c" unicode="&#x6c;" d="M40 700L150 700L150 100L331 100L331 0L40 0L40 700Z"  horiz-adv-x="339" vert-adv-y="1000"  />

      
      <glyph glyph-name="uni6d" unicode="&#x6d;" d="M273 203L348 700L501 700L501 0L397 0L397 502L321 0L217 0L135 495L135 0L39 0L39 700L192 700L273 203Z"  horiz-adv-x="541" vert-adv-y="1000"  />

      
      <glyph glyph-name="uni6e" unicode="&#x6e;" d="M138 507L138 0L39 0L39 700L177 700L290 281L290 700L388 700L388 0L275 0L138 507Z"  horiz-adv-x="427" vert-adv-y="1000"  />

      
      <glyph glyph-name="uni6f" unicode="&#x6f;" d="M141 161Q141 123 156.50 107.50Q172 92 198 92Q224 92 239.50 107.50Q255 123 255 161L255 539Q255 577 239.50 592.50Q224 608 198 608Q172 608 156.50 592.50Q141 577 141 539L141 161M31 532Q31 617 74 662.50Q117 708 198 708Q279 708 322 662.50Q365 617 365 532L365 168Q365 83 322 37.50Q279-8 198-8Q117-8 74 37.50Q31 83 31 168L31 532Z"  horiz-adv-x="396" vert-adv-y="1000"  />

      
      <glyph glyph-name="uni70" unicode="&#x70;" d="M202 700Q285 700 325.50 656Q366 612 366 527L366 436Q366 351 325.50 307Q285 263 202 263L150 263L150 0L40 0L40 700L202 700M150 600L150 363L202 363Q228 363 242 377Q256 391 256 429L256 534Q256 572 242 586Q228 600 202 600L150 600Z"  horiz-adv-x="377" vert-adv-y="1000"  />

      
      <glyph glyph-name="uni71" unicode="&#x71;" d="M31 532Q31 617 74 662.50Q117 708 198 708Q279 708 322 662.50Q365 617 365 532L365 168Q365 109 344 70Q348 60 354.50 57.50Q361 55 375 55L385 55L385-43L370-43Q333-43 309.50-30.50Q286-18 275 5Q258-1 239-4.50Q220-8 198-8Q117-8 74 37.50Q31 83 31 168L31 532M141 161Q141 123 156.50 107.50Q172 92 198 92Q224 92 239.50 107.50Q255 123 255 161L255 539Q255 577 239.50 592.50Q224 608 198 608Q172 608 156.50 592.50Q141 577 141 539L141 161Z"  horiz-adv-x="396" vert-adv-y="1000"  />

      
      <glyph glyph-name="uni72" unicode="&#x72;" d="M270 0Q268 7 266 13Q264 19 262.50 28Q261 37 260.50 51Q260 65 260 86L260 196Q260 245 243 265Q226 285 188 285L150 285L150 0L40 0L40 700L206 700Q292 700 330.50 660Q369 620 369 539L369 484Q369 376 297 342Q339 325 354.50 286.50Q370 248 370 193L370 85Q370 59 372 39.50Q374 20 382 0L270 0M150 600L150 385L193 385Q224 385 241.50 401Q259 417 259 459L259 528Q259 566 245.50 583Q232 600 203 600L150 600Z"  horiz-adv-x="402" vert-adv-y="1000"  />

      
      <glyph glyph-name="uni73" unicode="&#x73;" d="M26 532Q26 617 66.50 662.50Q107 708 188 708Q269 708 309.50 662.50Q350 617 350 532L350 510L246 510L246 539Q246 577 231.50 592.50Q217 608 191 608Q165 608 150.50 592.50Q136 577 136 539Q136 503 152 475.50Q168 448 192 423.50Q216 399 243.50 374.50Q271 350 295 321Q319 292 335 255Q351 218 351 168Q351 83 309.50 37.50Q268-8 187-8Q106-8 64.50 37.50Q23 83 23 168L23 211L127 211L127 161Q127 123 142.50 108Q158 93 184 93Q210 93 225.50 108Q241 123 241 161Q241 197 225 224.50Q209 252 185 276.50Q161 301 133.50 325.50Q106 350 82 379Q58 408 42 445Q26 482 26 532Z"  horiz-adv-x="374" vert-adv-y="1000"  />

      
      <glyph glyph-name="uni74" unicode="&#x74;" d="M8 700L348 700L348 600L233 600L233 0L123 0L123 600L8 600L8 700Z"  horiz-adv-x="356" vert-adv-y="1000"  />

      
      <glyph glyph-name="uni75" unicode="&#x75;" d="M145 700L145 160Q145 122 160.50 107Q176 92 202 92Q228 92 243.50 107Q259 122 259 160L259 700L363 700L363 167Q363 82 321.50 36.50Q280-9 199-9Q118-9 76.50 36.50Q35 82 35 167L35 700L145 700Z"  horiz-adv-x="398" vert-adv-y="1000"  />

      
      <glyph glyph-name="uni76" unicode="&#x76;" d="M206 129L290 700L391 700L283 0L119 0L11 700L122 700L206 129Z"  horiz-adv-x="402" vert-adv-y="1000"  />

      
      <glyph glyph-name="uni77" unicode="&#x77;" d="M284 373L244 0L93 0L15 700L122 700L181 148L234 700L340 700L395 144L452 700L548 700L470 0L324 0L284 373Z"  horiz-adv-x="563" vert-adv-y="1000"  />

      
      <glyph glyph-name="uni78" unicode="&#x78;" d="M407 700L292 360L415 0L299 0L209 277L118 0L15 0L138 360L23 700L137 700L220 442L305 700L407 700Z"  horiz-adv-x="430" vert-adv-y="1000"  />

      
      <glyph glyph-name="uni79" unicode="&#x79;" d="M143 232L4 700L119 700L203 381L287 700L392 700L253 232L253 0L143 0L143 232Z"  horiz-adv-x="396" vert-adv-y="1000"  />

      
      <glyph glyph-name="uni7a" unicode="&#x7a;" d="M345 700L345 602L136 100L345 100L345 0L23 0L23 98L232 600L33 600L33 700L345 700Z"  horiz-adv-x="370" vert-adv-y="1000"  />

      
      <glyph glyph-name="uni7b" unicode="&#x7b;" d="M102 350Q121 345 133.50 335.50Q146 326 153 314Q160 302 163 288.50Q166 275 167 261L172 161Q174 119 186.50 104.50Q199 90 225 90L241 90L241 0L185 0Q138 0 108 27Q78 54 74 111L66 245Q64 280 53.50 292.50Q43 305 11 305L11 395Q43 395 53.50 407.50Q64 420 66 455L74 589Q78 646 108 673Q138 700 185 700L241 700L241 610L225 610Q199 610 186.50 595.50Q174 581 172 539L167 439Q166 425 163 411Q160 397 153 385Q146 373 133.50 364Q121 355 102 350Z"  horiz-adv-x="257" vert-adv-y="1000"  />

      
      <glyph glyph-name="uni7c" unicode="&#x7c;" d="M210 765L300 765L300-65L210-65L210 765Z"  horiz-adv-x="500" vert-adv-y="1000"  />

      
      <glyph glyph-name="uni7d" unicode="&#x7d;" d="M155 350Q117 360 104 385.50Q91 411 90 439L85 539Q83 581 70.50 595.50Q58 610 32 610L16 610L16 700L72 700Q119 700 149 673Q179 646 183 589L191 455Q193 420 203.50 407.50Q214 395 246 395L246 305Q214 305 203.50 292.50Q193 280 191 245L183 111Q179 54 149 27Q119 0 72 0L16 0L16 90L32 90Q58 90 70.50 104.50Q83 119 85 161L90 261Q91 289 104 314.50Q117 340 155 350Z"  horiz-adv-x="257" vert-adv-y="1000"  />

      
      <glyph glyph-name="uni7e" unicode="&#x7e;" d="M8 332Q26 359 41.50 376Q57 393 71 403.50Q85 414 99 418Q113 422 127 422Q147 422 166 412.50Q185 403 203 391.50Q221 380 237.50 370.50Q254 361 270 361Q287 361 300 373.50Q313 386 336 418L388 364Q352 311 324.50 294.50Q297 278 269 278Q249 278 230 287.50Q211 297 193 308.50Q175 320 158.50 329.50Q142 339 126 339Q109 339 96 326.50Q83 314 60 282L8 332Z"  horiz-adv-x="396" vert-adv-y="1000"  />

      
      <glyph glyph-name="unia1" unicode="&#xa1;" d="M136 545L150 292L150 0L40 0L40 292L54 545L136 545M42 594L42 700L148 700L148 594L42 594Z"  horiz-adv-x="190" vert-adv-y="1000"  />

      
      <glyph glyph-name="unia2" unicode="&#xa2;" d="M153 37Q95 49 65.50 92.50Q36 136 36 208L36 492Q36 563 65.50 606.50Q95 650 153 663L153 715L243 715L243 664Q303 652 333.50 608Q364 564 364 492L364 444L260 444L260 499Q260 537 244.50 552.50Q229 568 203 568Q177 568 161.50 552.50Q146 537 146 499L146 201Q146 163 161.50 148Q177 133 203 133Q229 133 244.50 148Q260 163 260 201L260 281L364 281L364 208Q364 136 333.50 91.50Q303 47 243 36L243-15L153-15L153 37Z"  horiz-adv-x="396" vert-adv-y="1000"  />

      
      <glyph glyph-name="unia3" unicode="&#xa3;" d="M44 295L111 295Q102 321 90 344Q78 367 66.50 393.50Q55 420 47.50 453Q40 486 40 532Q40 617 80.50 662.50Q121 708 202 708Q283 708 323.50 662.50Q364 617 364 532L364 463L260 463L260 539Q260 577 245.50 592.50Q231 608 205 608Q179 608 164.50 592.50Q150 577 150 539Q150 492 158 459Q166 426 176.50 399Q187 372 198.50 347.50Q210 323 217 295L338 295L338 210L224 210Q220 172 205.50 145Q191 118 168 100L357 100L357 0L30 0L30 96Q69 96 96 126Q123 156 125 210L44 210L44 295Z"  horiz-adv-x="396" vert-adv-y="1000"  />

      
      <glyph glyph-name="unia4" unicode="&#xa4;" d="M134 350Q134 324 153 305Q172 286 198 286Q224 286 243 305Q262 324 262 350Q262 376 243 395Q224 414 198 414Q172 414 153 395Q134 376 134 350M87 282Q69 312 69 350Q69 388 87 417L32 473L75 516L131 460Q161 479 198 479Q233 479 265 460L321 516L364 473L308 417Q327 385 327 350Q327 313 308 283L364 227L321 184L265 239Q236 221 198 221Q160 221 130 239L75 184L32 227L87 282Z"  horiz-adv-x="396" vert-adv-y="1000"  />

      
      <glyph glyph-name="unia5" unicode="&#xa5;" d="M389 700L261 271L344 271L344 216L253 216L253 171L344 171L344 116L253 116L253 0L143 0L143 116L52 116L52 171L143 171L143 216L52 216L52 271L134 271L7 700L122 700L203 391L284 700L389 700Z"  horiz-adv-x="396" vert-adv-y="1000"  />

      
      <glyph glyph-name="unia6" unicode="&#xa6;" d="M210 765L300 765L300 410L210 410L210 765M210 290L300 290L300-65L210-65L210 290Z"  horiz-adv-x="500" vert-adv-y="1000"  />

      
      <glyph glyph-name="unia7" unicode="&#xa7;" d="M35 314Q35 352 52 384Q69 416 104 436Q75 455 55 484.50Q35 514 35 566Q35 626 76 667Q117 708 197 708Q278 708 318.50 670Q359 632 359 572L359 536L255 536L255 557Q255 584 240.50 600.50Q226 617 200 617Q145 617 145 561Q145 540 161 527Q177 514 201 502.50Q225 491 252.50 478.50Q280 466 304 446Q328 426 344 396.50Q360 367 360 321Q360 283 342.50 250.50Q325 218 290 198Q319 180 339.50 150Q360 120 360 69Q360 9 319-32Q278-73 198-73Q117-73 76.50-35Q36 3 36 63L36 113L140 113L140 78Q140 51 154.50 34.50Q169 18 195 18Q250 18 250 74Q250 95 234 108Q218 121 194 132.50Q170 144 142.50 156.50Q115 169 91 189Q67 209 51 238.50Q35 268 35 314M140 318Q140 288 157.50 271Q175 254 201 241Q226 245 240.50 267Q255 289 255 317Q255 346 237 363Q219 380 193 393Q168 389 154 367.50Q140 346 140 318Z"  horiz-adv-x="396" vert-adv-y="1000"  />

      
      <glyph glyph-name="unia8" unicode="&#xa8;" d="M97 833L97 737L1 737L1 833L97 833M249 833L249 737L153 737L153 833L249 833Z"  horiz-adv-x="250" vert-adv-y="1000"  />

      
      <glyph glyph-name="unia9" unicode="&#xa9;" d="M477 308L477 252Q477 193 449 161.50Q421 130 364 130Q307 130 279 161.50Q251 193 251 252L251 446Q251 506 279 538Q307 570 364 570Q421 570 449 538Q477 506 477 446L477 410L405 410L405 452Q405 478 394.50 489Q384 500 366 500Q348 500 337.50 489Q327 478 327 452L327 248Q327 222 337.50 211.50Q348 201 366 201Q384 201 394.50 211.50Q405 222 405 248L405 308L477 308M20 350Q20 428 46.50 493.50Q73 559 119.50 607Q166 655 230 681.50Q294 708 368 708Q442 708 506 681.50Q570 655 616.50 607Q663 559 689.50 493.50Q716 428 716 350Q716 272 689.50 206.50Q663 141 616.50 93Q570 45 506 18.50Q442-8 368-8Q294-8 230 18.50Q166 45 119.50 93Q73 141 46.50 206.50Q20 272 20 350M92 350Q92 287 113 234.50Q134 182 171 143.50Q208 105 258.50 83.50Q309 62 368 62Q427 62 477.50 83.50Q528 105 565 143.50Q602 182 623 234.50Q644 287 644 350Q644 413 623 465.50Q602 518 565 556.50Q528 595 477.50 616.50Q427 638 368 638Q309 638 258.50 616.50Q208 595 171 556.50Q134 518 113 465.50Q92 413 92 350Z"  horiz-adv-x="736" vert-adv-y="1000"  />

      
      <glyph glyph-name="uniaa" unicode="&#xaa;" d="M30 433Q30 469 40.50 492.50Q51 516 70 530Q89 544 115 550.50Q141 557 172 558L172 604Q172 641 144 641Q127 641 118.50 631.50Q110 622 110 598L110 575L44 575L44 594Q44 647 69.50 676Q95 705 147 705Q198 705 220 676Q242 647 242 594L242 333L183 333L179 381Q162 328 108 328Q30 328 30 429L30 433M242 287L242 218L30 218L30 287L242 287M100 435Q100 411 109.50 401.50Q119 392 136 392Q152 392 161 400Q170 408 172 428L172 506Q149 505 134.50 499Q120 493 112.50 484Q105 475 102.50 464.50Q100 454 100 444L100 435Z"  horiz-adv-x="278" vert-adv-y="1000"  />

      
      <glyph glyph-name="uniab" unicode="&#xab;" d="M177 608L116 351L177 78L78 78L16 351L78 608L177 608M339 608L278 351L339 78L240 78L178 351L240 608L339 608Z"  horiz-adv-x="355" vert-adv-y="1000"  />

      
      <glyph glyph-name="uniac" unicode="&#xac;" d="M371 389L371 174L293 174L293 311L25 311L25 389L371 389Z"  horiz-adv-x="396" vert-adv-y="1000"  />

      
      <glyph glyph-name="uniad" unicode="&#xad;" d="M35 400L235 400L235 300L35 300L35 400Z"  horiz-adv-x="270" vert-adv-y="1000"  />

      
      <glyph glyph-name="uniae" unicode="&#xae;" d="M20 350Q20 428 46.50 493.50Q73 559 119.50 607Q166 655 230 681.50Q294 708 368 708Q442 708 506 681.50Q570 655 616.50 607Q663 559 689.50 493.50Q716 428 716 350Q716 272 689.50 206.50Q663 141 616.50 93Q570 45 506 18.50Q442-8 368-8Q294-8 230 18.50Q166 45 119.50 93Q73 141 46.50 206.50Q20 272 20 350M92 350Q92 287 113 234.50Q134 182 171 143.50Q208 105 258.50 83.50Q309 62 368 62Q427 62 477.50 83.50Q528 105 565 143.50Q602 182 623 234.50Q644 287 644 350Q644 413 623 465.50Q602 518 565 556.50Q528 595 477.50 616.50Q427 638 368 638Q309 638 258.50 616.50Q208 595 171 556.50Q134 518 113 465.50Q92 413 92 350M418 136Q416 141 414.50 145.50Q413 150 412.50 156Q412 162 411.50 171.50Q411 181 411 196L411 242Q411 277 398.50 290.50Q386 304 360 304L334 304L334 136L258 136L258 564L374 564Q433 564 460 536.50Q487 509 487 452L487 443Q487 367 435 344Q464 332 475.50 305.50Q487 279 487 241L487 195Q487 178 488.50 164Q490 150 496 136L418 136M334 494L334 374L365 374Q386 374 398.50 385Q411 396 411 425L411 443Q411 494 370 494L334 494Z"  horiz-adv-x="736" vert-adv-y="1000"  />

      
      <glyph glyph-name="uniaf" unicode="&#xaf;" d="M240 819L240 741L10 741L10 819L240 819Z"  horiz-adv-x="250" vert-adv-y="1000"  />

      
      <glyph glyph-name="unib0" unicode="&#xb0;" d="M15 609Q15 651 43.50 679.50Q72 708 114 708Q156 708 184.50 679.50Q213 651 213 609Q213 567 184.50 538.50Q156 510 114 510Q72 510 43.50 538.50Q15 567 15 609M65 609Q65 589 79.50 574.50Q94 560 114 560Q134 560 148.50 574.50Q163 589 163 609Q163 629 148.50 643.50Q134 658 114 658Q94 658 79.50 643.50Q65 629 65 609Z"  horiz-adv-x="228" vert-adv-y="1000"  />

      
      <glyph glyph-name="unib1" unicode="&#xb1;" d="M361 252L361 174L35 174L35 252L159 252L159 332L35 332L35 410L159 410L159 524L237 524L237 410L361 410L361 332L237 332L237 252L361 252Z"  horiz-adv-x="396" vert-adv-y="1000"  />

      
      <glyph glyph-name="unib2" unicode="&#xb2;" d="M180 688Q180 717 170.50 727.50Q161 738 144 738Q127 738 117.50 728Q108 718 108 694L108 647L42 647L42 690Q42 744 68 772.50Q94 801 146 801Q198 801 224 772.50Q250 744 250 690Q250 653 239 624Q228 595 211.50 571Q195 547 176 526.50Q157 506 141.50 487.50Q126 469 117 451Q108 433 112 414L244 414L244 351L42 351L42 405Q42 437 52 462Q62 487 77.50 507.50Q93 528 111 547Q129 566 144.50 586.50Q160 607 170 631.50Q180 656 180 688Z"  horiz-adv-x="280" vert-adv-y="1000"  />

      
      <glyph glyph-name="unib3" unicode="&#xb3;" d="M174 494Q174 526 163 538Q152 550 129 550L105 550L105 613L132 613Q152 613 163 624Q174 635 174 661L174 686Q174 716 164.50 726.50Q155 737 138 737Q121 737 111.50 726.50Q102 716 102 693L102 665L36 665L36 688Q36 742 62 771Q88 800 140 800Q192 800 218 771Q244 742 244 688L244 677Q244 606 195 586Q221 575 232.50 551Q244 527 244 493L244 458Q244 404 218 375Q192 346 140 346Q88 346 62 375Q36 404 36 458L36 494L102 494L102 453Q102 430 111.50 419.50Q121 409 138 409Q155 409 164.50 419.50Q174 430 174 460L174 494Z"  horiz-adv-x="280" vert-adv-y="1000"  />

      
      <glyph glyph-name="unib4" unicode="&#xb4;" d="M203 848L101 737L27 737L95 848L203 848Z"  horiz-adv-x="250" vert-adv-y="1000"  />

      
      <glyph glyph-name="unib5" unicode="&#xb5;" d="M141 161Q141 123 156.50 107.50Q172 92 198 92Q224 92 239.50 107.50Q255 123 255 161L255 500L365 500L365 0L265 0L265 52Q234-8 165-8Q158-8 152-7.50Q146-7 141-6L141-93L31-93L31 500L141 500L141 161Z"  horiz-adv-x="396" vert-adv-y="1000"  />

      
      <glyph glyph-name="unib6" unicode="&#xb6;" d="M356-65L276-65L276 620L222 620L222-65L142-65L144 265Q81 265 47.50 313Q14 361 14 436L14 527Q14 612 54.50 656Q95 700 178 700L356 700L356-65Z"  horiz-adv-x="396" vert-adv-y="1000"  />

      
      <glyph glyph-name="unib7" unicode="&#xb7;" d="M146 403L146 297L40 297L40 403L146 403Z"  horiz-adv-x="186" vert-adv-y="1000"  />

      
      <glyph glyph-name="unib8" unicode="&#xb8;" d="M26-79L100-79L100-87Q100-98 107-102.50Q114-107 122-107Q147-107 147-83Q147-57 111-57L101-57L101 14L149 14L149-39Q186-39 204.50-49.50Q223-60 223-86Q223-106 215.50-118Q208-130 194.50-136.50Q181-143 162.50-145Q144-147 122-147Q81-147 53.50-135.50Q26-124 26-89L26-79Z"  horiz-adv-x="250" vert-adv-y="1000"  />

      
      <glyph glyph-name="unib9" unicode="&#xb9;" d="M25 739Q45 739 58 743.50Q71 748 79.50 755.50Q88 763 93 773.50Q98 784 103 795L149 795L149 351L79 351L79 690L25 690L25 739Z"  horiz-adv-x="200" vert-adv-y="1000"  />

      
      <glyph glyph-name="uniba" unicode="&#xba;" d="M104 435Q104 411 113.50 401.50Q123 392 140 392Q157 392 166.50 401.50Q176 411 176 435L176 598Q176 622 166.50 631.50Q157 641 140 641Q123 641 113.50 631.50Q104 622 104 598L104 435M34 594Q34 647 61 676Q88 705 140 705Q192 705 219 676Q246 647 246 594L246 439Q246 386 219 357Q192 328 140 328Q88 328 61 357Q34 386 34 439L34 594M246 287L246 218L34 218L34 287L246 287Z"  horiz-adv-x="280" vert-adv-y="1000"  />

      
      <glyph glyph-name="unibb" unicode="&#xbb;" d="M277 608L339 351L277 78L178 78L239 351L178 608L277 608M115 608L177 351L115 78L16 78L77 351L16 608L115 608Z"  horiz-adv-x="355" vert-adv-y="1000"  />

      
      <glyph glyph-name="unibc" unicode="&#xbc;" d="M65 644Q85 644 98 648.50Q111 653 119.50 660.50Q128 668 133 678.50Q138 689 143 700L189 700L189 256L119 256L119 595L65 595L65 644M436 700L501 700L225 0L160 0L436 700M371 144L498 444L574 444L574 144L607 144L607 80L574 80L574 0L505 0L505 80L371 80L371 144M505 144L505 308L434 144L505 144Z"  horiz-adv-x="627" vert-adv-y="1000"  />

      
      <glyph glyph-name="unibd" unicode="&#xbd;" d="M65 644Q85 644 98 648.50Q111 653 119.50 660.50Q128 668 133 678.50Q138 689 143 700L189 700L189 256L119 256L119 595L65 595L65 644M406 700L471 700L195 0L130 0L406 700M527 337Q527 366 517.50 376.50Q508 387 491 387Q474 387 464.50 377Q455 367 455 343L455 296L389 296L389 339Q389 393 415 421.50Q441 450 493 450Q545 450 571 421.50Q597 393 597 339Q597 303 586 273.50Q575 244 558.50 220Q542 196 523 175.50Q504 155 488.50 136.50Q473 118 464 100Q455 82 459 63L591 63L591 0L389 0L389 54Q389 86 399 111Q409 136 424.50 156.50Q440 177 458 196Q476 215 491.50 235.50Q507 256 517 280.50Q527 305 527 337Z"  horiz-adv-x="627" vert-adv-y="1000"  />

      
      <glyph glyph-name="unibe" unicode="&#xbe;" d="M174 399Q174 431 163 443Q152 455 129 455L105 455L105 518L132 518Q152 518 163 529Q174 540 174 566L174 591Q174 621 164.50 631.50Q155 642 138 642Q121 642 111.50 631.50Q102 621 102 598L102 570L36 570L36 593Q36 647 62 676Q88 705 140 705Q192 705 218 676Q244 647 244 593L244 582Q244 511 195 491Q221 480 232.50 456Q244 432 244 398L244 363Q244 309 218 280Q192 251 140 251Q88 251 62 280Q36 309 36 363L36 399L102 399L102 358Q102 335 111.50 324.50Q121 314 138 314Q155 314 164.50 324.50Q174 335 174 365L174 399M446 700L511 700L235 0L170 0L446 700M371 144L498 444L574 444L574 144L607 144L607 80L574 80L574 0L505 0L505 80L371 80L371 144M505 144L505 308L434 144L505 144Z"  horiz-adv-x="627" vert-adv-y="1000"  />

      
      <glyph glyph-name="unibf" unicode="&#xbf;" d="M240 545Q246 527 246 502Q246 464 237 436Q228 408 215 384.50Q202 361 186 339.50Q170 318 157 293Q144 268 135 236Q126 204 126 161Q126 123 140.50 107.50Q155 92 181 92Q207 92 221.50 107.50Q236 123 236 161L236 237L340 237L340 168Q340 83 299.50 37.50Q259-8 178-8Q97-8 56.50 37.50Q16 83 16 168Q16 213 25.50 247Q35 281 49.50 308Q64 335 81 357.50Q98 380 112.50 402Q127 424 136.50 449Q146 474 146 506Q146 528 142 545L240 545M139 594L139 700L245 700L245 594L139 594Z"  horiz-adv-x="360" vert-adv-y="1000"  />

      
      <glyph glyph-name="unic0" unicode="&#xc0;" d="M396 0L285 0L266 127L131 127L112 0L11 0L123 700L284 700L396 0M145 222L251 222L198 576L145 222M196 848L264 737L185 737L83 848L196 848Z"  horiz-adv-x="407" vert-adv-y="1000"  />

      
      <glyph glyph-name="unic1" unicode="&#xc1;" d="M396 0L285 0L266 127L131 127L112 0L11 0L123 700L284 700L396 0M145 222L251 222L198 576L145 222M321 848L219 737L145 737L213 848L321 848Z"  horiz-adv-x="407" vert-adv-y="1000"  />

      
      <glyph glyph-name="unic2" unicode="&#xc2;" d="M396 0L285 0L266 127L131 127L112 0L11 0L123 700L284 700L396 0M145 222L251 222L198 576L145 222M65 737L154 848L253 848L342 737L248 737L203 792L159 737L65 737Z"  horiz-adv-x="407" vert-adv-y="1000"  />

      
      <glyph glyph-name="unic3" unicode="&#xc3;" d="M396 0L285 0L266 127L131 127L112 0L11 0L123 700L284 700L396 0M145 222L251 222L198 576L145 222M243 813Q257 813 267 818Q277 823 286 842L339 805Q325 767 302.50 752Q280 737 254 737Q238 737 226.50 741Q215 745 204.50 749.50Q194 754 184.50 758Q175 762 164 762Q150 762 140 757Q130 752 121 733L68 770Q82 808 104.50 823Q127 838 153 838Q169 838 180.50 834Q192 830 202.50 825.50Q213 821 222.50 817Q232 813 243 813Z"  horiz-adv-x="407" vert-adv-y="1000"  />

      
      <glyph glyph-name="unic4" unicode="&#xc4;" d="M396 0L285 0L266 127L131 127L112 0L11 0L123 700L284 700L396 0M145 222L251 222L198 576L145 222M175 833L175 737L79 737L79 833L175 833M327 833L327 737L231 737L231 833L327 833Z"  horiz-adv-x="407" vert-adv-y="1000"  />

      
      <glyph glyph-name="unic5" unicode="&#xc5;" d="M396 0L285 0L266 127L131 127L112 0L11 0L123 700L284 700L396 0M145 222L251 222L198 576L145 222M123 814Q123 848 146 871Q169 894 203 894Q237 894 260 871Q283 848 283 814Q283 780 260 757Q237 734 203 734Q169 734 146 757Q123 780 123 814M173 814Q173 801 181.50 792.50Q190 784 203 784Q216 784 224.50 792.50Q233 801 233 814Q233 827 224.50 835.50Q216 844 203 844Q190 844 181.50 835.50Q173 827 173 814Z"  horiz-adv-x="407" vert-adv-y="1000"  />

      
      <glyph glyph-name="unic6" unicode="&#xc6;" d="M252 127L141 127L109 0L4 0L191 700L552 700L552 600L362 600L362 405L513 405L513 305L362 305L362 100L552 100L552 0L252 0L252 127M252 222L252 559L166 222L252 222Z"  horiz-adv-x="580" vert-adv-y="1000"  />

      
      <glyph glyph-name="unic7" unicode="&#xc7;" d="M359 261L359 168Q359 90 323 44.50Q287-1 217-7L217-39Q254-39 272.50-49.50Q291-60 291-86Q291-106 283.50-118Q276-130 262.50-136.50Q249-143 230.50-145Q212-147 190-147Q149-147 121.50-135.50Q94-124 94-89L94-79L168-79L168-87Q168-98 175-102.50Q182-107 190-107Q215-107 215-83Q215-57 179-57L169-57L169-6Q100 1 65.50 45.50Q31 90 31 168L31 532Q31 617 72.50 662.50Q114 708 195 708Q276 708 317.50 662.50Q359 617 359 532L359 464L255 464L255 539Q255 577 239.50 592.50Q224 608 198 608Q172 608 156.50 592.50Q141 577 141 539L141 161Q141 123 156.50 108Q172 93 198 93Q224 93 239.50 108Q255 123 255 161L255 261L359 261Z"  horiz-adv-x="386" vert-adv-y="1000"  />

      
      <glyph glyph-name="unic8" unicode="&#xc8;" d="M150 405L301 405L301 305L150 305L150 100L340 100L340 0L40 0L40 700L340 700L340 600L150 600L150 405M181 848L249 737L170 737L68 848L181 848Z"  horiz-adv-x="368" vert-adv-y="1000"  />

      
      <glyph glyph-name="unic9" unicode="&#xc9;" d="M150 405L301 405L301 305L150 305L150 100L340 100L340 0L40 0L40 700L340 700L340 600L150 600L150 405M307 848L205 737L131 737L199 848L307 848Z"  horiz-adv-x="368" vert-adv-y="1000"  />

      
      <glyph glyph-name="unica" unicode="&#xca;" d="M150 405L301 405L301 305L150 305L150 100L340 100L340 0L40 0L40 700L340 700L340 600L150 600L150 405M50 737L139 848L238 848L327 737L233 737L188 792L144 737L50 737Z"  horiz-adv-x="368" vert-adv-y="1000"  />

      
      <glyph glyph-name="unicb" unicode="&#xcb;" d="M150 405L301 405L301 305L150 305L150 100L340 100L340 0L40 0L40 700L340 700L340 600L150 600L150 405M161 833L161 737L65 737L65 833L161 833M313 833L313 737L217 737L217 833L313 833Z"  horiz-adv-x="368" vert-adv-y="1000"  />

      
      <glyph glyph-name="unicc" unicode="&#xcc;" d="M40 700L150 700L150 0L40 0L40 700M88 848L156 737L77 737L-25 848L88 848Z"  horiz-adv-x="190" vert-adv-y="1000"  />

      
      <glyph glyph-name="unicd" unicode="&#xcd;" d="M40 700L150 700L150 0L40 0L40 700M213 848L111 737L37 737L105 848L213 848Z"  horiz-adv-x="190" vert-adv-y="1000"  />

      
      <glyph glyph-name="unice" unicode="&#xce;" d="M40 700L150 700L150 0L40 0L40 700M-43 737L46 848L145 848L234 737L140 737L95 792L51 737L-43 737Z"  horiz-adv-x="190" vert-adv-y="1000"  />

      
      <glyph glyph-name="unicf" unicode="&#xcf;" d="M40 700L150 700L150 0L40 0L40 700M67 833L67 737L-29 737L-29 833L67 833M219 833L219 737L123 737L123 833L219 833Z"  horiz-adv-x="190" vert-adv-y="1000"  />

      
      <glyph glyph-name="unid0" unicode="&#xd0;" d="M40 305L4 305L4 395L40 395L40 700L214 700Q297 700 337.50 656Q378 612 378 527L378 173Q378 88 337.50 44Q297 0 214 0L40 0L40 305M150 600L150 395L218 395L218 305L150 305L150 100L212 100Q238 100 253 115Q268 130 268 168L268 532Q268 570 253 585Q238 600 212 600L150 600Z"  horiz-adv-x="408" vert-adv-y="1000"  />

      
      <glyph glyph-name="unid1" unicode="&#xd1;" d="M138 507L138 0L39 0L39 700L177 700L290 281L290 700L388 700L388 0L275 0L138 507M253 813Q267 813 277 818Q287 823 296 842L349 805Q335 767 312.50 752Q290 737 264 737Q248 737 236.50 741Q225 745 214.50 749.50Q204 754 194.50 758Q185 762 174 762Q160 762 150 757Q140 752 131 733L78 770Q92 808 114.50 823Q137 838 163 838Q179 838 190.50 834Q202 830 212.50 825.50Q223 821 232.50 817Q242 813 253 813Z"  horiz-adv-x="427" vert-adv-y="1000"  />

      
      <glyph glyph-name="unid2" unicode="&#xd2;" d="M141 161Q141 123 156.50 107.50Q172 92 198 92Q224 92 239.50 107.50Q255 123 255 161L255 539Q255 577 239.50 592.50Q224 608 198 608Q172 608 156.50 592.50Q141 577 141 539L141 161M31 532Q31 617 74 662.50Q117 708 198 708Q279 708 322 662.50Q365 617 365 532L365 168Q365 83 322 37.50Q279-8 198-8Q117-8 74 37.50Q31 83 31 168L31 532M190 848L258 737L179 737L77 848L190 848Z"  horiz-adv-x="396" vert-adv-y="1000"  />

      
      <glyph glyph-name="unid3" unicode="&#xd3;" d="M141 161Q141 123 156.50 107.50Q172 92 198 92Q224 92 239.50 107.50Q255 123 255 161L255 539Q255 577 239.50 592.50Q224 608 198 608Q172 608 156.50 592.50Q141 577 141 539L141 161M31 532Q31 617 74 662.50Q117 708 198 708Q279 708 322 662.50Q365 617 365 532L365 168Q365 83 322 37.50Q279-8 198-8Q117-8 74 37.50Q31 83 31 168L31 532M316 848L214 737L140 737L208 848L316 848Z"  horiz-adv-x="396" vert-adv-y="1000"  />

      
      <glyph glyph-name="unid4" unicode="&#xd4;" d="M141 161Q141 123 156.50 107.50Q172 92 198 92Q224 92 239.50 107.50Q255 123 255 161L255 539Q255 577 239.50 592.50Q224 608 198 608Q172 608 156.50 592.50Q141 577 141 539L141 161M31 532Q31 617 74 662.50Q117 708 198 708Q279 708 322 662.50Q365 617 365 532L365 168Q365 83 322 37.50Q279-8 198-8Q117-8 74 37.50Q31 83 31 168L31 532M59 737L148 848L247 848L336 737L242 737L197 792L153 737L59 737Z"  horiz-adv-x="396" vert-adv-y="1000"  />

      
      <glyph glyph-name="unid5" unicode="&#xd5;" d="M141 161Q141 123 156.50 107.50Q172 92 198 92Q224 92 239.50 107.50Q255 123 255 161L255 539Q255 577 239.50 592.50Q224 608 198 608Q172 608 156.50 592.50Q141 577 141 539L141 161M31 532Q31 617 74 662.50Q117 708 198 708Q279 708 322 662.50Q365 617 365 532L365 168Q365 83 322 37.50Q279-8 198-8Q117-8 74 37.50Q31 83 31 168L31 532M238 813Q252 813 262 818Q272 823 281 842L334 805Q320 767 297.50 752Q275 737 249 737Q233 737 221.50 741Q210 745 199.50 749.50Q189 754 179.50 758Q170 762 159 762Q145 762 135 757Q125 752 116 733L63 770Q77 808 99.50 823Q122 838 148 838Q164 838 175.50 834Q187 830 197.50 825.50Q208 821 217.50 817Q227 813 238 813Z"  horiz-adv-x="396" vert-adv-y="1000"  />

      
      <glyph glyph-name="unid6" unicode="&#xd6;" d="M141 161Q141 123 156.50 107.50Q172 92 198 92Q224 92 239.50 107.50Q255 123 255 161L255 539Q255 577 239.50 592.50Q224 608 198 608Q172 608 156.50 592.50Q141 577 141 539L141 161M31 532Q31 617 74 662.50Q117 708 198 708Q279 708 322 662.50Q365 617 365 532L365 168Q365 83 322 37.50Q279-8 198-8Q117-8 74 37.50Q31 83 31 168L31 532M170 833L170 737L74 737L74 833L170 833M322 833L322 737L226 737L226 833L322 833Z"  horiz-adv-x="396" vert-adv-y="1000"  />

      
      <glyph glyph-name="unid7" unicode="&#xd7;" d="M198 403L304 509L357 456L251 350L357 244L304 191L198 297L91 191L38 244L144 350L39 455L92 508L198 403Z"  horiz-adv-x="396" vert-adv-y="1000"  />

      
      <glyph glyph-name="unid8" unicode="&#xd8;" d="M66 46Q31 92 31 168L31 532Q31 617 74 662.50Q117 708 198 708Q258 708 298 682L318 737L355 724L329 653Q365 609 365 532L365 168Q365 83 322 37.50Q279-8 198-8Q136-8 98 17L78-37L41-24L66 46M141 251L253 560Q249 586 234.50 597Q220 608 198 608Q172 608 156.50 592.50Q141 577 141 539L141 251M198 92Q224 92 239.50 107.50Q255 123 255 161L255 449L142 140Q147 114 161 103Q175 92 198 92Z"  horiz-adv-x="396" vert-adv-y="1000"  />

      
      <glyph glyph-name="unid9" unicode="&#xd9;" d="M145 700L145 160Q145 122 160.50 107Q176 92 202 92Q228 92 243.50 107Q259 122 259 160L259 700L363 700L363 167Q363 82 321.50 36.50Q280-9 199-9Q118-9 76.50 36.50Q35 82 35 167L35 700L145 700M192 848L260 737L181 737L79 848L192 848Z"  horiz-adv-x="398" vert-adv-y="1000"  />

      
      <glyph glyph-name="unida" unicode="&#xda;" d="M145 700L145 160Q145 122 160.50 107Q176 92 202 92Q228 92 243.50 107Q259 122 259 160L259 700L363 700L363 167Q363 82 321.50 36.50Q280-9 199-9Q118-9 76.50 36.50Q35 82 35 167L35 700L145 700M318 848L216 737L142 737L210 848L318 848Z"  horiz-adv-x="398" vert-adv-y="1000"  />

      
      <glyph glyph-name="unidb" unicode="&#xdb;" d="M145 700L145 160Q145 122 160.50 107Q176 92 202 92Q228 92 243.50 107Q259 122 259 160L259 700L363 700L363 167Q363 82 321.50 36.50Q280-9 199-9Q118-9 76.50 36.50Q35 82 35 167L35 700L145 700M62 737L151 848L250 848L339 737L245 737L200 792L156 737L62 737Z"  horiz-adv-x="398" vert-adv-y="1000"  />

      
      <glyph glyph-name="unidc" unicode="&#xdc;" d="M145 700L145 160Q145 122 160.50 107Q176 92 202 92Q228 92 243.50 107Q259 122 259 160L259 700L363 700L363 167Q363 82 321.50 36.50Q280-9 199-9Q118-9 76.50 36.50Q35 82 35 167L35 700L145 700M173 833L173 737L77 737L77 833L173 833M325 833L325 737L229 737L229 833L325 833Z"  horiz-adv-x="398" vert-adv-y="1000"  />

      
      <glyph glyph-name="unidd" unicode="&#xdd;" d="M143 232L4 700L119 700L203 381L287 700L392 700L253 232L253 0L143 0L143 232M320 848L218 737L144 737L212 848L320 848Z"  horiz-adv-x="396" vert-adv-y="1000"  />

      
      <glyph glyph-name="unide" unicode="&#xde;" d="M40 700L150 700L150 620L202 620Q285 620 325.50 576Q366 532 366 447L366 356Q366 271 325.50 227Q285 183 202 183L150 183L150 0L40 0L40 700M150 520L150 283L202 283Q228 283 242 297Q256 311 256 349L256 454Q256 492 242 506Q228 520 202 520L150 520Z"  horiz-adv-x="377" vert-adv-y="1000"  />

      
      <glyph glyph-name="unidf" unicode="&#xdf;" d="M26 532Q26 617 66.50 662.50Q107 708 188 708Q269 708 309.50 662.50Q350 617 350 532L350 510L246 510L246 539Q246 577 231.50 592.50Q217 608 191 608Q165 608 150.50 592.50Q136 577 136 539Q136 503 152 475.50Q168 448 192 423.50Q216 399 243.50 374.50Q271 350 295 321Q319 292 335 255Q351 218 351 168Q351 83 309.50 37.50Q268-8 187-8Q106-8 64.50 37.50Q23 83 23 168L23 211L127 211L127 161Q127 123 142.50 108Q158 93 184 93Q210 93 225.50 108Q241 123 241 161Q241 197 225 224.50Q209 252 185 276.50Q161 301 133.50 325.50Q106 350 82 379Q58 408 42 445Q26 482 26 532M400 532Q400 617 440.50 662.50Q481 708 562 708Q643 708 683.50 662.50Q724 617 724 532L724 510L620 510L620 539Q620 577 605.50 592.50Q591 608 565 608Q539 608 524.50 592.50Q510 577 510 539Q510 503 526 475.50Q542 448 566 423.50Q590 399 617.50 374.50Q645 350 669 321Q693 292 709 255Q725 218 725 168Q725 83 683.50 37.50Q642-8 561-8Q480-8 438.50 37.50Q397 83 397 168L397 211L501 211L501 161Q501 123 516.50 108Q532 93 558 93Q584 93 599.50 108Q615 123 615 161Q615 197 599 224.50Q583 252 559 276.50Q535 301 507.50 325.50Q480 350 456 379Q432 408 416 445Q400 482 400 532Z"  horiz-adv-x="748" vert-adv-y="1000"  />

      
      <glyph glyph-name="unie0" unicode="&#xe0;" d="M396 0L285 0L266 127L131 127L112 0L11 0L123 700L284 700L396 0M145 222L251 222L198 576L145 222M196 848L264 737L185 737L83 848L196 848Z"  horiz-adv-x="407" vert-adv-y="1000"  />

      
      <glyph glyph-name="unie1" unicode="&#xe1;" d="M396 0L285 0L266 127L131 127L112 0L11 0L123 700L284 700L396 0M145 222L251 222L198 576L145 222M321 848L219 737L145 737L213 848L321 848Z"  horiz-adv-x="407" vert-adv-y="1000"  />

      
      <glyph glyph-name="unie2" unicode="&#xe2;" d="M396 0L285 0L266 127L131 127L112 0L11 0L123 700L284 700L396 0M145 222L251 222L198 576L145 222M65 737L154 848L253 848L342 737L248 737L203 792L159 737L65 737Z"  horiz-adv-x="407" vert-adv-y="1000"  />

      
      <glyph glyph-name="unie3" unicode="&#xe3;" d="M396 0L285 0L266 127L131 127L112 0L11 0L123 700L284 700L396 0M145 222L251 222L198 576L145 222M243 813Q257 813 267 818Q277 823 286 842L339 805Q325 767 302.50 752Q280 737 254 737Q238 737 226.50 741Q215 745 204.50 749.50Q194 754 184.50 758Q175 762 164 762Q150 762 140 757Q130 752 121 733L68 770Q82 808 104.50 823Q127 838 153 838Q169 838 180.50 834Q192 830 202.50 825.50Q213 821 222.50 817Q232 813 243 813Z"  horiz-adv-x="407" vert-adv-y="1000"  />

      
      <glyph glyph-name="unie4" unicode="&#xe4;" d="M396 0L285 0L266 127L131 127L112 0L11 0L123 700L284 700L396 0M145 222L251 222L198 576L145 222M175 833L175 737L79 737L79 833L175 833M327 833L327 737L231 737L231 833L327 833Z"  horiz-adv-x="407" vert-adv-y="1000"  />

      
      <glyph glyph-name="unie5" unicode="&#xe5;" d="M396 0L285 0L266 127L131 127L112 0L11 0L123 700L284 700L396 0M145 222L251 222L198 576L145 222M123 814Q123 848 146 871Q169 894 203 894Q237 894 260 871Q283 848 283 814Q283 780 260 757Q237 734 203 734Q169 734 146 757Q123 780 123 814M173 814Q173 801 181.50 792.50Q190 784 203 784Q216 784 224.50 792.50Q233 801 233 814Q233 827 224.50 835.50Q216 844 203 844Q190 844 181.50 835.50Q173 827 173 814Z"  horiz-adv-x="407" vert-adv-y="1000"  />

      
      <glyph glyph-name="unie6" unicode="&#xe6;" d="M362 405L513 405L513 305L362 305L362 100L552 100L552 0L252 0L252 127L141 127L109 0L4 0L191 700L552 700L552 600L362 600L362 405M252 222L252 559L166 222L252 222Z"  horiz-adv-x="580" vert-adv-y="1000"  />

      
      <glyph glyph-name="unie7" unicode="&#xe7;" d="M359 261L359 168Q359 90 323 44.50Q287-1 217-7L217-39Q254-39 272.50-49.50Q291-60 291-86Q291-106 283.50-118Q276-130 262.50-136.50Q249-143 230.50-145Q212-147 190-147Q149-147 121.50-135.50Q94-124 94-89L94-79L168-79L168-87Q168-98 175-102.50Q182-107 190-107Q215-107 215-83Q215-57 179-57L169-57L169-6Q100 1 65.50 45.50Q31 90 31 168L31 532Q31 617 72.50 662.50Q114 708 195 708Q276 708 317.50 662.50Q359 617 359 532L359 464L255 464L255 539Q255 577 239.50 592.50Q224 608 198 608Q172 608 156.50 592.50Q141 577 141 539L141 161Q141 123 156.50 108Q172 93 198 93Q224 93 239.50 108Q255 123 255 161L255 261L359 261Z"  horiz-adv-x="386" vert-adv-y="1000"  />

      
      <glyph glyph-name="unie8" unicode="&#xe8;" d="M150 405L301 405L301 305L150 305L150 100L340 100L340 0L40 0L40 700L340 700L340 600L150 600L150 405M181 848L249 737L170 737L68 848L181 848Z"  horiz-adv-x="368" vert-adv-y="1000"  />

      
      <glyph glyph-name="unie9" unicode="&#xe9;" d="M150 405L301 405L301 305L150 305L150 100L340 100L340 0L40 0L40 700L340 700L340 600L150 600L150 405M307 848L205 737L131 737L199 848L307 848Z"  horiz-adv-x="368" vert-adv-y="1000"  />

      
      <glyph glyph-name="uniea" unicode="&#xea;" d="M150 405L301 405L301 305L150 305L150 100L340 100L340 0L40 0L40 700L340 700L340 600L150 600L150 405M50 737L139 848L238 848L327 737L233 737L188 792L144 737L50 737Z"  horiz-adv-x="368" vert-adv-y="1000"  />

      
      <glyph glyph-name="unieb" unicode="&#xeb;" d="M150 405L301 405L301 305L150 305L150 100L340 100L340 0L40 0L40 700L340 700L340 600L150 600L150 405M161 833L161 737L65 737L65 833L161 833M313 833L313 737L217 737L217 833L313 833Z"  horiz-adv-x="368" vert-adv-y="1000"  />

      
      <glyph glyph-name="uniec" unicode="&#xec;" d="M40 700L150 700L150 0L40 0L40 700M88 848L156 737L77 737L-25 848L88 848Z"  horiz-adv-x="190" vert-adv-y="1000"  />

      
      <glyph glyph-name="unied" unicode="&#xed;" d="M40 700L150 700L150 0L40 0L40 700M213 848L111 737L37 737L105 848L213 848Z"  horiz-adv-x="190" vert-adv-y="1000"  />

      
      <glyph glyph-name="uniee" unicode="&#xee;" d="M40 700L150 700L150 0L40 0L40 700M-43 737L46 848L145 848L234 737L140 737L95 792L51 737L-43 737Z"  horiz-adv-x="190" vert-adv-y="1000"  />

      
      <glyph glyph-name="unief" unicode="&#xef;" d="M40 700L150 700L150 0L40 0L40 700M67 833L67 737L-29 737L-29 833L67 833M219 833L219 737L123 737L123 833L219 833Z"  horiz-adv-x="190" vert-adv-y="1000"  />

      
      <glyph glyph-name="unif0" unicode="&#xf0;" d="M40 305L4 305L4 395L40 395L40 700L214 700Q297 700 337.50 656Q378 612 378 527L378 173Q378 88 337.50 44Q297 0 214 0L40 0L40 305M150 600L150 395L218 395L218 305L150 305L150 100L212 100Q238 100 253 115Q268 130 268 168L268 532Q268 570 253 585Q238 600 212 600L150 600Z"  horiz-adv-x="408" vert-adv-y="1000"  />

      
      <glyph glyph-name="unif1" unicode="&#xf1;" d="M138 507L138 0L39 0L39 700L177 700L290 281L290 700L388 700L388 0L275 0L138 507M253 813Q267 813 277 818Q287 823 296 842L349 805Q335 767 312.50 752Q290 737 264 737Q248 737 236.50 741Q225 745 214.50 749.50Q204 754 194.50 758Q185 762 174 762Q160 762 150 757Q140 752 131 733L78 770Q92 808 114.50 823Q137 838 163 838Q179 838 190.50 834Q202 830 212.50 825.50Q223 821 232.50 817Q242 813 253 813Z"  horiz-adv-x="427" vert-adv-y="1000"  />

      
      <glyph glyph-name="unif2" unicode="&#xf2;" d="M141 161Q141 123 156.50 107.50Q172 92 198 92Q224 92 239.50 107.50Q255 123 255 161L255 539Q255 577 239.50 592.50Q224 608 198 608Q172 608 156.50 592.50Q141 577 141 539L141 161M31 532Q31 617 74 662.50Q117 708 198 708Q279 708 322 662.50Q365 617 365 532L365 168Q365 83 322 37.50Q279-8 198-8Q117-8 74 37.50Q31 83 31 168L31 532M190 848L258 737L179 737L77 848L190 848Z"  horiz-adv-x="396" vert-adv-y="1000"  />

      
      <glyph glyph-name="unif3" unicode="&#xf3;" d="M141 161Q141 123 156.50 107.50Q172 92 198 92Q224 92 239.50 107.50Q255 123 255 161L255 539Q255 577 239.50 592.50Q224 608 198 608Q172 608 156.50 592.50Q141 577 141 539L141 161M31 532Q31 617 74 662.50Q117 708 198 708Q279 708 322 662.50Q365 617 365 532L365 168Q365 83 322 37.50Q279-8 198-8Q117-8 74 37.50Q31 83 31 168L31 532M316 848L214 737L140 737L208 848L316 848Z"  horiz-adv-x="396" vert-adv-y="1000"  />

      
      <glyph glyph-name="unif4" unicode="&#xf4;" d="M141 161Q141 123 156.50 107.50Q172 92 198 92Q224 92 239.50 107.50Q255 123 255 161L255 539Q255 577 239.50 592.50Q224 608 198 608Q172 608 156.50 592.50Q141 577 141 539L141 161M31 532Q31 617 74 662.50Q117 708 198 708Q279 708 322 662.50Q365 617 365 532L365 168Q365 83 322 37.50Q279-8 198-8Q117-8 74 37.50Q31 83 31 168L31 532M59 737L148 848L247 848L336 737L242 737L197 792L153 737L59 737Z"  horiz-adv-x="396" vert-adv-y="1000"  />

      
      <glyph glyph-name="unif5" unicode="&#xf5;" d="M141 161Q141 123 156.50 107.50Q172 92 198 92Q224 92 239.50 107.50Q255 123 255 161L255 539Q255 577 239.50 592.50Q224 608 198 608Q172 608 156.50 592.50Q141 577 141 539L141 161M31 532Q31 617 74 662.50Q117 708 198 708Q279 708 322 662.50Q365 617 365 532L365 168Q365 83 322 37.50Q279-8 198-8Q117-8 74 37.50Q31 83 31 168L31 532M238 813Q252 813 262 818Q272 823 281 842L334 805Q320 767 297.50 752Q275 737 249 737Q233 737 221.50 741Q210 745 199.50 749.50Q189 754 179.50 758Q170 762 159 762Q145 762 135 757Q125 752 116 733L63 770Q77 808 99.50 823Q122 838 148 838Q164 838 175.50 834Q187 830 197.50 825.50Q208 821 217.50 817Q227 813 238 813Z"  horiz-adv-x="396" vert-adv-y="1000"  />

      
      <glyph glyph-name="unif6" unicode="&#xf6;" d="M141 161Q141 123 156.50 107.50Q172 92 198 92Q224 92 239.50 107.50Q255 123 255 161L255 539Q255 577 239.50 592.50Q224 608 198 608Q172 608 156.50 592.50Q141 577 141 539L141 161M31 532Q31 617 74 662.50Q117 708 198 708Q279 708 322 662.50Q365 617 365 532L365 168Q365 83 322 37.50Q279-8 198-8Q117-8 74 37.50Q31 83 31 168L31 532M170 833L170 737L74 737L74 833L170 833M322 833L322 737L226 737L226 833L322 833Z"  horiz-adv-x="396" vert-adv-y="1000"  />

      
      <glyph glyph-name="unif7" unicode="&#xf7;" d="M251 250L251 144L145 144L145 250L251 250M251 555L251 449L145 449L145 555L251 555M371 389L371 311L25 311L25 389L371 389Z"  horiz-adv-x="396" vert-adv-y="1000"  />

      
      <glyph glyph-name="unif8" unicode="&#xf8;" d="M31 532Q31 617 74 662.50Q117 708 198 708Q258 708 298 682L318 737L355 724L329 653Q365 609 365 532L365 168Q365 83 322 37.50Q279-8 198-8Q136-8 98 17L78-37L41-24L66 46Q31 92 31 168L31 532M141 251L253 560Q249 586 234.50 597Q220 608 198 608Q172 608 156.50 592.50Q141 577 141 539L141 251M198 92Q224 92 239.50 107.50Q255 123 255 161L255 449L142 140Q147 114 161 103Q175 92 198 92Z"  horiz-adv-x="396" vert-adv-y="1000"  />

      
      <glyph glyph-name="unif9" unicode="&#xf9;" d="M145 700L145 160Q145 122 160.50 107Q176 92 202 92Q228 92 243.50 107Q259 122 259 160L259 700L363 700L363 167Q363 82 321.50 36.50Q280-9 199-9Q118-9 76.50 36.50Q35 82 35 167L35 700L145 700M192 848L260 737L181 737L79 848L192 848Z"  horiz-adv-x="398" vert-adv-y="1000"  />

      
      <glyph glyph-name="unifa" unicode="&#xfa;" d="M145 700L145 160Q145 122 160.50 107Q176 92 202 92Q228 92 243.50 107Q259 122 259 160L259 700L363 700L363 167Q363 82 321.50 36.50Q280-9 199-9Q118-9 76.50 36.50Q35 82 35 167L35 700L145 700M318 848L216 737L142 737L210 848L318 848Z"  horiz-adv-x="398" vert-adv-y="1000"  />

      
      <glyph glyph-name="unifb" unicode="&#xfb;" d="M145 700L145 160Q145 122 160.50 107Q176 92 202 92Q228 92 243.50 107Q259 122 259 160L259 700L363 700L363 167Q363 82 321.50 36.50Q280-9 199-9Q118-9 76.50 36.50Q35 82 35 167L35 700L145 700M62 737L151 848L250 848L339 737L245 737L200 792L156 737L62 737Z"  horiz-adv-x="398" vert-adv-y="1000"  />

      
      <glyph glyph-name="unifc" unicode="&#xfc;" d="M145 700L145 160Q145 122 160.50 107Q176 92 202 92Q228 92 243.50 107Q259 122 259 160L259 700L363 700L363 167Q363 82 321.50 36.50Q280-9 199-9Q118-9 76.50 36.50Q35 82 35 167L35 700L145 700M173 833L173 737L77 737L77 833L173 833M325 833L325 737L229 737L229 833L325 833Z"  horiz-adv-x="398" vert-adv-y="1000"  />

      
      <glyph glyph-name="unifd" unicode="&#xfd;" d="M143 232L4 700L119 700L203 381L287 700L392 700L253 232L253 0L143 0L143 232M320 848L218 737L144 737L212 848L320 848Z"  horiz-adv-x="396" vert-adv-y="1000"  />

      
      <glyph glyph-name="unife" unicode="&#xfe;" d="M40 700L150 700L150 620L202 620Q285 620 325.50 576Q366 532 366 447L366 356Q366 271 325.50 227Q285 183 202 183L150 183L150 0L40 0L40 700M150 520L150 283L202 283Q228 283 242 297Q256 311 256 349L256 454Q256 492 242 506Q228 520 202 520L150 520Z"  horiz-adv-x="377" vert-adv-y="1000"  />

      
      <glyph glyph-name="uniff" unicode="&#xff;" d="M143 232L4 700L119 700L203 381L287 700L392 700L253 232L253 0L143 0L143 232M174 833L174 737L78 737L78 833L174 833M326 833L326 737L230 737L230 833L326 833Z"  horiz-adv-x="396" vert-adv-y="1000"  />

      
      <glyph glyph-name="uni0100" unicode="&#x0100;" d="M396 0L285 0L266 127L131 127L112 0L11 0L123 700L284 700L396 0M145 222L251 222L198 576L145 222M318 819L318 741L88 741L88 819L318 819Z"  horiz-adv-x="407" vert-adv-y="1000"  />

      
      <glyph glyph-name="uni0101" unicode="&#x0101;" d="M396 0L285 0L266 127L131 127L112 0L11 0L123 700L284 700L396 0M145 222L251 222L198 576L145 222M318 819L318 741L88 741L88 819L318 819Z"  horiz-adv-x="407" vert-adv-y="1000"  />

      
      <glyph glyph-name="uni0102" unicode="&#x0102;" d="M396 0L285 0L266 127L131 127L112 0L11 0L123 700L284 700L396 0M145 222L251 222L198 576L145 222M315 848Q315 795 287 764Q259 733 202 733Q145 733 118.50 764Q92 795 91 848L156 848Q158 819 169.50 810Q181 801 202 801Q224 801 236 810Q248 819 250 848L315 848Z"  horiz-adv-x="407" vert-adv-y="1000"  />

      
      <glyph glyph-name="uni0103" unicode="&#x0103;" d="M396 0L285 0L266 127L131 127L112 0L11 0L123 700L284 700L396 0M145 222L251 222L198 576L145 222M315 848Q315 795 287 764Q259 733 202 733Q145 733 118.50 764Q92 795 91 848L156 848Q158 819 169.50 810Q181 801 202 801Q224 801 236 810Q248 819 250 848L315 848Z"  horiz-adv-x="407" vert-adv-y="1000"  />

      
      <glyph glyph-name="uni0104" unicode="&#x0104;" d="M396 0L355 0Q336-16 330.50-31.50Q325-47 325-58Q325-72 335.50-79Q346-86 360-86Q375-86 381.50-84Q388-82 396-80L396-136Q379-143 364-145Q349-147 328-147Q288-147 264.50-131.50Q241-116 241-85Q241-43 288-12L266 127L131 127L112 0L11 0L123 700L284 700L396 0M145 222L251 222L198 576L145 222Z"  horiz-adv-x="407" vert-adv-y="1000"  />

      
      <glyph glyph-name="uni0105" unicode="&#x0105;" d="M396 0L355 0Q336-16 330.50-31.50Q325-47 325-58Q325-72 335.50-79Q346-86 360-86Q375-86 381.50-84Q388-82 396-80L396-136Q379-143 364-145Q349-147 328-147Q288-147 264.50-131.50Q241-116 241-85Q241-43 288-12L266 127L131 127L112 0L11 0L123 700L284 700L396 0M145 222L251 222L198 576L145 222Z"  horiz-adv-x="407" vert-adv-y="1000"  />

      
      <glyph glyph-name="uni0106" unicode="&#x0106;" d="M359 261L359 168Q359 83 317.50 37.50Q276-8 195-8Q114-8 72.50 37.50Q31 83 31 168L31 532Q31 617 72.50 662.50Q114 708 195 708Q276 708 317.50 662.50Q359 617 359 532L359 464L255 464L255 539Q255 577 239.50 592.50Q224 608 198 608Q172 608 156.50 592.50Q141 577 141 539L141 161Q141 123 156.50 108Q172 93 198 93Q224 93 239.50 108Q255 123 255 161L255 261L359 261M313 848L211 737L137 737L205 848L313 848Z"  horiz-adv-x="386" vert-adv-y="1000"  />

      
      <glyph glyph-name="uni0107" unicode="&#x0107;" d="M359 261L359 168Q359 83 317.50 37.50Q276-8 195-8Q114-8 72.50 37.50Q31 83 31 168L31 532Q31 617 72.50 662.50Q114 708 195 708Q276 708 317.50 662.50Q359 617 359 532L359 464L255 464L255 539Q255 577 239.50 592.50Q224 608 198 608Q172 608 156.50 592.50Q141 577 141 539L141 161Q141 123 156.50 108Q172 93 198 93Q224 93 239.50 108Q255 123 255 161L255 261L359 261M313 848L211 737L137 737L205 848L313 848Z"  horiz-adv-x="386" vert-adv-y="1000"  />

      
      <glyph glyph-name="uni0108" unicode="&#x0108;" d="M359 261L359 168Q359 83 317.50 37.50Q276-8 195-8Q114-8 72.50 37.50Q31 83 31 168L31 532Q31 617 72.50 662.50Q114 708 195 708Q276 708 317.50 662.50Q359 617 359 532L359 464L255 464L255 539Q255 577 239.50 592.50Q224 608 198 608Q172 608 156.50 592.50Q141 577 141 539L141 161Q141 123 156.50 108Q172 93 198 93Q224 93 239.50 108Q255 123 255 161L255 261L359 261M56 737L145 848L244 848L333 737L239 737L194 792L150 737L56 737Z"  horiz-adv-x="386" vert-adv-y="1000"  />

      
      <glyph glyph-name="uni0109" unicode="&#x0109;" d="M359 261L359 168Q359 83 317.50 37.50Q276-8 195-8Q114-8 72.50 37.50Q31 83 31 168L31 532Q31 617 72.50 662.50Q114 708 195 708Q276 708 317.50 662.50Q359 617 359 532L359 464L255 464L255 539Q255 577 239.50 592.50Q224 608 198 608Q172 608 156.50 592.50Q141 577 141 539L141 161Q141 123 156.50 108Q172 93 198 93Q224 93 239.50 108Q255 123 255 161L255 261L359 261M56 737L145 848L244 848L333 737L239 737L194 792L150 737L56 737Z"  horiz-adv-x="386" vert-adv-y="1000"  />

      
      <glyph glyph-name="uni010A" unicode="&#x010A;" d="M359 261L359 168Q359 83 317.50 37.50Q276-8 195-8Q114-8 72.50 37.50Q31 83 31 168L31 532Q31 617 72.50 662.50Q114 708 195 708Q276 708 317.50 662.50Q359 617 359 532L359 464L255 464L255 539Q255 577 239.50 592.50Q224 608 198 608Q172 608 156.50 592.50Q141 577 141 539L141 161Q141 123 156.50 108Q172 93 198 93Q224 93 239.50 108Q255 123 255 161L255 261L359 261M243 833L243 737L147 737L147 833L243 833Z"  horiz-adv-x="386" vert-adv-y="1000"  />

      
      <glyph glyph-name="uni010B" unicode="&#x010B;" d="M359 261L359 168Q359 83 317.50 37.50Q276-8 195-8Q114-8 72.50 37.50Q31 83 31 168L31 532Q31 617 72.50 662.50Q114 708 195 708Q276 708 317.50 662.50Q359 617 359 532L359 464L255 464L255 539Q255 577 239.50 592.50Q224 608 198 608Q172 608 156.50 592.50Q141 577 141 539L141 161Q141 123 156.50 108Q172 93 198 93Q224 93 239.50 108Q255 123 255 161L255 261L359 261M243 833L243 737L147 737L147 833L243 833Z"  horiz-adv-x="386" vert-adv-y="1000"  />

      
      <glyph glyph-name="uni010C" unicode="&#x010C;" d="M359 261L359 168Q359 83 317.50 37.50Q276-8 195-8Q114-8 72.50 37.50Q31 83 31 168L31 532Q31 617 72.50 662.50Q114 708 195 708Q276 708 317.50 662.50Q359 617 359 532L359 464L255 464L255 539Q255 577 239.50 592.50Q224 608 198 608Q172 608 156.50 592.50Q141 577 141 539L141 161Q141 123 156.50 108Q172 93 198 93Q224 93 239.50 108Q255 123 255 161L255 261L359 261M150 848L194 792L239 848L333 848L244 737L145 737L56 848L150 848Z"  horiz-adv-x="386" vert-adv-y="1000"  />

      
      <glyph glyph-name="uni010D" unicode="&#x010D;" d="M359 261L359 168Q359 83 317.50 37.50Q276-8 195-8Q114-8 72.50 37.50Q31 83 31 168L31 532Q31 617 72.50 662.50Q114 708 195 708Q276 708 317.50 662.50Q359 617 359 532L359 464L255 464L255 539Q255 577 239.50 592.50Q224 608 198 608Q172 608 156.50 592.50Q141 577 141 539L141 161Q141 123 156.50 108Q172 93 198 93Q224 93 239.50 108Q255 123 255 161L255 261L359 261M150 848L194 792L239 848L333 848L244 737L145 737L56 848L150 848Z"  horiz-adv-x="386" vert-adv-y="1000"  />

      
      <glyph glyph-name="uni010E" unicode="&#x010E;" d="M40 700L214 700Q297 700 337.50 656Q378 612 378 527L378 173Q378 88 337.50 44Q297 0 214 0L40 0L40 700M150 600L150 100L212 100Q238 100 253 115Q268 130 268 168L268 532Q268 570 253 585Q238 600 212 600L150 600M150 848L194 792L239 848L333 848L244 737L145 737L56 848L150 848Z"  horiz-adv-x="408" vert-adv-y="1000"  />

      
      <glyph glyph-name="uni010F" unicode="&#x010F;" d="M40 700L214 700Q297 700 337.50 656Q378 612 378 527L378 173Q378 88 337.50 44Q297 0 214 0L40 0L40 700M150 600L150 100L212 100Q238 100 253 115Q268 130 268 168L268 532Q268 570 253 585Q238 600 212 600L150 600M150 848L194 792L239 848L333 848L244 737L145 737L56 848L150 848Z"  horiz-adv-x="408" vert-adv-y="1000"  />

      
      <glyph glyph-name="uni0110" unicode="&#x0110;" d="M40 305L4 305L4 395L40 395L40 700L214 700Q297 700 337.50 656Q378 612 378 527L378 173Q378 88 337.50 44Q297 0 214 0L40 0L40 305M150 600L150 395L218 395L218 305L150 305L150 100L212 100Q238 100 253 115Q268 130 268 168L268 532Q268 570 253 585Q238 600 212 600L150 600Z"  horiz-adv-x="408" vert-adv-y="1000"  />

      
      <glyph glyph-name="uni0111" unicode="&#x0111;" d="M40 305L4 305L4 395L40 395L40 700L214 700Q297 700 337.50 656Q378 612 378 527L378 173Q378 88 337.50 44Q297 0 214 0L40 0L40 305M150 600L150 395L218 395L218 305L150 305L150 100L212 100Q238 100 253 115Q268 130 268 168L268 532Q268 570 253 585Q238 600 212 600L150 600Z"  horiz-adv-x="408" vert-adv-y="1000"  />

      
      <glyph glyph-name="uni0112" unicode="&#x0112;" d="M150 405L301 405L301 305L150 305L150 100L340 100L340 0L40 0L40 700L340 700L340 600L150 600L150 405M303 819L303 741L73 741L73 819L303 819Z"  horiz-adv-x="368" vert-adv-y="1000"  />

      
      <glyph glyph-name="uni0113" unicode="&#x0113;" d="M150 405L301 405L301 305L150 305L150 100L340 100L340 0L40 0L40 700L340 700L340 600L150 600L150 405M303 819L303 741L73 741L73 819L303 819Z"  horiz-adv-x="368" vert-adv-y="1000"  />

      
      <glyph glyph-name="uni0114" unicode="&#x0114;" d="M150 405L301 405L301 305L150 305L150 100L340 100L340 0L40 0L40 700L340 700L340 600L150 600L150 405M300 848Q300 795 272 764Q244 733 187 733Q130 733 103.50 764Q77 795 76 848L141 848Q143 819 154.50 810Q166 801 187 801Q209 801 221 810Q233 819 235 848L300 848Z"  horiz-adv-x="368" vert-adv-y="1000"  />

      
      <glyph glyph-name="uni0115" unicode="&#x0115;" d="M150 405L301 405L301 305L150 305L150 100L340 100L340 0L40 0L40 700L340 700L340 600L150 600L150 405M300 848Q300 795 272 764Q244 733 187 733Q130 733 103.50 764Q77 795 76 848L141 848Q143 819 154.50 810Q166 801 187 801Q209 801 221 810Q233 819 235 848L300 848Z"  horiz-adv-x="368" vert-adv-y="1000"  />

      
      <glyph glyph-name="uni0116" unicode="&#x0116;" d="M150 405L301 405L301 305L150 305L150 100L340 100L340 0L40 0L40 700L340 700L340 600L150 600L150 405M236 833L236 737L140 737L140 833L236 833Z"  horiz-adv-x="368" vert-adv-y="1000"  />

      
      <glyph glyph-name="uni0117" unicode="&#x0117;" d="M150 405L301 405L301 305L150 305L150 100L340 100L340 0L40 0L40 700L340 700L340 600L150 600L150 405M236 833L236 737L140 737L140 833L236 833Z"  horiz-adv-x="368" vert-adv-y="1000"  />

      
      <glyph glyph-name="uni0118" unicode="&#x0118;" d="M150 405L301 405L301 305L150 305L150 100L340 100L340 0L299 0Q280-16 274.50-31.50Q269-47 269-58Q269-72 279.50-79Q290-86 304-86Q319-86 325.50-84Q332-82 340-80L340-136Q323-143 308-145Q293-147 272-147Q232-147 208.50-131.50Q185-116 185-85Q185-61 201.50-39Q218-17 252 0L40 0L40 700L340 700L340 600L150 600L150 405Z"  horiz-adv-x="368" vert-adv-y="1000"  />

      
      <glyph glyph-name="uni0119" unicode="&#x0119;" d="M150 405L301 405L301 305L150 305L150 100L340 100L340 0L299 0Q280-16 274.50-31.50Q269-47 269-58Q269-72 279.50-79Q290-86 304-86Q319-86 325.50-84Q332-82 340-80L340-136Q323-143 308-145Q293-147 272-147Q232-147 208.50-131.50Q185-116 185-85Q185-61 201.50-39Q218-17 252 0L40 0L40 700L340 700L340 600L150 600L150 405Z"  horiz-adv-x="368" vert-adv-y="1000"  />

      
      <glyph glyph-name="uni011A" unicode="&#x011A;" d="M150 405L301 405L301 305L150 305L150 100L340 100L340 0L40 0L40 700L340 700L340 600L150 600L150 405M143 848L187 792L232 848L326 848L237 737L138 737L49 848L143 848Z"  horiz-adv-x="368" vert-adv-y="1000"  />

      
      <glyph glyph-name="uni011B" unicode="&#x011B;" d="M150 405L301 405L301 305L150 305L150 100L340 100L340 0L40 0L40 700L340 700L340 600L150 600L150 405M143 848L187 792L232 848L326 848L237 737L138 737L49 848L143 848Z"  horiz-adv-x="368" vert-adv-y="1000"  />

      
      <glyph glyph-name="uni011C" unicode="&#x011C;" d="M205 390L359 390L359 168Q359 83 317.50 37.50Q276-8 195-8Q114-8 72.50 37.50Q31 83 31 168L31 532Q31 617 72.50 662.50Q114 708 195 708Q276 708 317.50 662.50Q359 617 359 532L359 464L255 464L255 539Q255 577 239.50 592.50Q224 608 198 608Q172 608 156.50 592.50Q141 577 141 539L141 161Q141 123 156.50 108Q172 93 198 93Q224 93 239.50 108Q255 123 255 161L255 290L205 290L205 390M56 737L145 848L244 848L333 737L239 737L194 792L150 737L56 737Z"  horiz-adv-x="390" vert-adv-y="1000"  />

      
      <glyph glyph-name="uni011D" unicode="&#x011D;" d="M205 390L359 390L359 168Q359 83 317.50 37.50Q276-8 195-8Q114-8 72.50 37.50Q31 83 31 168L31 532Q31 617 72.50 662.50Q114 708 195 708Q276 708 317.50 662.50Q359 617 359 532L359 464L255 464L255 539Q255 577 239.50 592.50Q224 608 198 608Q172 608 156.50 592.50Q141 577 141 539L141 161Q141 123 156.50 108Q172 93 198 93Q224 93 239.50 108Q255 123 255 161L255 290L205 290L205 390M56 737L145 848L244 848L333 737L239 737L194 792L150 737L56 737Z"  horiz-adv-x="390" vert-adv-y="1000"  />

      
      <glyph glyph-name="uni011E" unicode="&#x011E;" d="M205 390L359 390L359 168Q359 83 317.50 37.50Q276-8 195-8Q114-8 72.50 37.50Q31 83 31 168L31 532Q31 617 72.50 662.50Q114 708 195 708Q276 708 317.50 662.50Q359 617 359 532L359 464L255 464L255 539Q255 577 239.50 592.50Q224 608 198 608Q172 608 156.50 592.50Q141 577 141 539L141 161Q141 123 156.50 108Q172 93 198 93Q224 93 239.50 108Q255 123 255 161L255 290L205 290L205 390M306 848Q306 795 278 764Q250 733 193 733Q136 733 109.50 764Q83 795 82 848L147 848Q149 819 160.50 810Q172 801 193 801Q215 801 227 810Q239 819 241 848L306 848Z"  horiz-adv-x="390" vert-adv-y="1000"  />

      
      <glyph glyph-name="uni011F" unicode="&#x011F;" d="M205 390L359 390L359 168Q359 83 317.50 37.50Q276-8 195-8Q114-8 72.50 37.50Q31 83 31 168L31 532Q31 617 72.50 662.50Q114 708 195 708Q276 708 317.50 662.50Q359 617 359 532L359 464L255 464L255 539Q255 577 239.50 592.50Q224 608 198 608Q172 608 156.50 592.50Q141 577 141 539L141 161Q141 123 156.50 108Q172 93 198 93Q224 93 239.50 108Q255 123 255 161L255 290L205 290L205 390M306 848Q306 795 278 764Q250 733 193 733Q136 733 109.50 764Q83 795 82 848L147 848Q149 819 160.50 810Q172 801 193 801Q215 801 227 810Q239 819 241 848L306 848Z"  horiz-adv-x="390" vert-adv-y="1000"  />

      
      <glyph glyph-name="uni0120" unicode="&#x0120;" d="M205 390L359 390L359 168Q359 83 317.50 37.50Q276-8 195-8Q114-8 72.50 37.50Q31 83 31 168L31 532Q31 617 72.50 662.50Q114 708 195 708Q276 708 317.50 662.50Q359 617 359 532L359 464L255 464L255 539Q255 577 239.50 592.50Q224 608 198 608Q172 608 156.50 592.50Q141 577 141 539L141 161Q141 123 156.50 108Q172 93 198 93Q224 93 239.50 108Q255 123 255 161L255 290L205 290L205 390M242 833L242 737L146 737L146 833L242 833Z"  horiz-adv-x="390" vert-adv-y="1000"  />

      
      <glyph glyph-name="uni0121" unicode="&#x0121;" d="M205 390L359 390L359 168Q359 83 317.50 37.50Q276-8 195-8Q114-8 72.50 37.50Q31 83 31 168L31 532Q31 617 72.50 662.50Q114 708 195 708Q276 708 317.50 662.50Q359 617 359 532L359 464L255 464L255 539Q255 577 239.50 592.50Q224 608 198 608Q172 608 156.50 592.50Q141 577 141 539L141 161Q141 123 156.50 108Q172 93 198 93Q224 93 239.50 108Q255 123 255 161L255 290L205 290L205 390M242 833L242 737L146 737L146 833L242 833Z"  horiz-adv-x="390" vert-adv-y="1000"  />

      
      <glyph glyph-name="uni0122" unicode="&#x0122;" d="M205 390L359 390L359 168Q359 83 317.50 37.50Q276-8 195-8Q114-8 72.50 37.50Q31 83 31 168L31 532Q31 617 72.50 662.50Q114 708 195 708Q276 708 317.50 662.50Q359 617 359 532L359 464L255 464L255 539Q255 577 239.50 592.50Q224 608 198 608Q172 608 156.50 592.50Q141 577 141 539L141 161Q141 123 156.50 108Q172 93 198 93Q224 93 239.50 108Q255 123 255 161L255 290L205 290L205 390M149-125L149-33L241-33L241-115L198-179L159-179L185-125L149-125Z"  horiz-adv-x="390" vert-adv-y="1000"  />

      
      <glyph glyph-name="uni0123" unicode="&#x0123;" d="M205 390L359 390L359 168Q359 83 317.50 37.50Q276-8 195-8Q114-8 72.50 37.50Q31 83 31 168L31 532Q31 617 72.50 662.50Q114 708 195 708Q276 708 317.50 662.50Q359 617 359 532L359 464L255 464L255 539Q255 577 239.50 592.50Q224 608 198 608Q172 608 156.50 592.50Q141 577 141 539L141 161Q141 123 156.50 108Q172 93 198 93Q224 93 239.50 108Q255 123 255 161L255 290L205 290L205 390M149-125L149-33L241-33L241-115L198-179L159-179L185-125L149-125Z"  horiz-adv-x="390" vert-adv-y="1000"  />

      
      <glyph glyph-name="uni0124" unicode="&#x0124;" d="M150 0L40 0L40 700L150 700L150 400L275 400L275 700L387 700L387 0L275 0L275 300L150 300L150 0M75 737L164 848L263 848L352 737L258 737L213 792L169 737L75 737Z"  horiz-adv-x="427" vert-adv-y="1000"  />

      
      <glyph glyph-name="uni0125" unicode="&#x0125;" d="M150 0L40 0L40 700L150 700L150 400L275 400L275 700L387 700L387 0L275 0L275 300L150 300L150 0M75 737L164 848L263 848L352 737L258 737L213 792L169 737L75 737Z"  horiz-adv-x="427" vert-adv-y="1000"  />

      
      <glyph glyph-name="uni0126" unicode="&#x0126;" d="M155 0L45 0L45 502L10 502L10 584L45 584L45 700L155 700L155 584L280 584L280 700L392 700L392 584L427 584L427 502L392 502L392 0L280 0L280 300L155 300L155 0M280 400L280 502L155 502L155 400L280 400Z"  horiz-adv-x="437" vert-adv-y="1000"  />

      
      <glyph glyph-name="uni0127" unicode="&#x0127;" d="M155 0L45 0L45 502L10 502L10 584L45 584L45 700L155 700L155 584L280 584L280 700L392 700L392 584L427 584L427 502L392 502L392 0L280 0L280 300L155 300L155 0M280 400L280 502L155 502L155 400L280 400Z"  horiz-adv-x="437" vert-adv-y="1000"  />

      
      <glyph glyph-name="uni0128" unicode="&#x0128;" d="M40 700L150 700L150 0L40 0L40 700M135 813Q149 813 159 818Q169 823 178 842L231 805Q217 767 194.50 752Q172 737 146 737Q130 737 118.50 741Q107 745 96.50 749.50Q86 754 76.50 758Q67 762 56 762Q42 762 32 757Q22 752 13 733L-40 770Q-26 808-3.50 823Q19 838 45 838Q61 838 72.50 834Q84 830 94.50 825.50Q105 821 114.50 817Q124 813 135 813Z"  horiz-adv-x="190" vert-adv-y="1000"  />

      
      <glyph glyph-name="uni0129" unicode="&#x0129;" d="M40 700L150 700L150 0L40 0L40 700M135 813Q149 813 159 818Q169 823 178 842L231 805Q217 767 194.50 752Q172 737 146 737Q130 737 118.50 741Q107 745 96.50 749.50Q86 754 76.50 758Q67 762 56 762Q42 762 32 757Q22 752 13 733L-40 770Q-26 808-3.50 823Q19 838 45 838Q61 838 72.50 834Q84 830 94.50 825.50Q105 821 114.50 817Q124 813 135 813Z"  horiz-adv-x="190" vert-adv-y="1000"  />

      
      <glyph glyph-name="uni012A" unicode="&#x012A;" d="M40 700L150 700L150 0L40 0L40 700M210 819L210 741L-20 741L-20 819L210 819Z"  horiz-adv-x="190" vert-adv-y="1000"  />

      
      <glyph glyph-name="uni012B" unicode="&#x012B;" d="M40 700L150 700L150 0L40 0L40 700M210 819L210 741L-20 741L-20 819L210 819Z"  horiz-adv-x="190" vert-adv-y="1000"  />

      
      <glyph glyph-name="uni012C" unicode="&#x012C;" d="M40 700L150 700L150 0L40 0L40 700M207 848Q207 795 179 764Q151 733 94 733Q37 733 10.50 764Q-16 795-17 848L48 848Q50 819 61.50 810Q73 801 94 801Q116 801 128 810Q140 819 142 848L207 848Z"  horiz-adv-x="190" vert-adv-y="1000"  />

      
      <glyph glyph-name="uni012D" unicode="&#x012D;" d="M40 700L150 700L150 0L40 0L40 700M207 848Q207 795 179 764Q151 733 94 733Q37 733 10.50 764Q-16 795-17 848L48 848Q50 819 61.50 810Q73 801 94 801Q116 801 128 810Q140 819 142 848L207 848Z"  horiz-adv-x="190" vert-adv-y="1000"  />

      
      <glyph glyph-name="uni012E" unicode="&#x012E;" d="M40 700L150 700L150 0L130 0Q111-16 105.50-31.50Q100-47 100-58Q100-72 110.50-79Q121-86 135-86Q150-86 156.50-84Q163-82 171-80L171-136Q154-143 139-145Q124-147 103-147Q63-147 39.50-131.50Q16-116 16-85Q16-61 32.50-39Q49-17 83 0L40 0L40 700Z"  horiz-adv-x="190" vert-adv-y="1000"  />

      
      <glyph glyph-name="uni012F" unicode="&#x012F;" d="M40 700L150 700L150 0L130 0Q111-16 105.50-31.50Q100-47 100-58Q100-72 110.50-79Q121-86 135-86Q150-86 156.50-84Q163-82 171-80L171-136Q154-143 139-145Q124-147 103-147Q63-147 39.50-131.50Q16-116 16-85Q16-61 32.50-39Q49-17 83 0L40 0L40 700Z"  horiz-adv-x="190" vert-adv-y="1000"  />

      
      <glyph glyph-name="uni0130" unicode="&#x0130;" d="M40 700L150 700L150 0L40 0L40 700M143 833L143 737L47 737L47 833L143 833Z"  horiz-adv-x="190" vert-adv-y="1000"  />

      
      <glyph glyph-name="uni0131" unicode="&#x0131;" d="M40 700L150 700L150 0L40 0L40 700Z"  horiz-adv-x="190" vert-adv-y="1000"  />

      
      <glyph glyph-name="uni0132" unicode="&#x0132;" d="M40 700L150 700L150 0L40 0L40 700M200 100Q209 99 219 99Q229 99 238 99Q264 99 282.50 112Q301 125 301 166L301 700L411 700L411 174Q411 121 398 87Q385 53 363 33.50Q341 14 312.50 6Q284-2 253-2Q238-2 226-2Q214-2 200 0L200 100Z"  horiz-adv-x="446" vert-adv-y="1000"  />

      
      <glyph glyph-name="uni0133" unicode="&#x0133;" d="M40 700L150 700L150 0L40 0L40 700M200 100Q209 99 219 99Q229 99 238 99Q264 99 282.50 112Q301 125 301 166L301 700L411 700L411 174Q411 121 398 87Q385 53 363 33.50Q341 14 312.50 6Q284-2 253-2Q238-2 226-2Q214-2 200 0L200 100Z"  horiz-adv-x="446" vert-adv-y="1000"  />

      
      <glyph glyph-name="uni0134" unicode="&#x0134;" d="M10 100Q19 99 29 99Q39 99 48 99Q74 99 92.50 112Q111 125 111 166L111 700L221 700L221 174Q221 121 208 87Q195 53 173 33.50Q151 14 122.50 6Q94-2 63-2Q48-2 36-2Q24-2 10 0L10 100M9 737L98 848L197 848L286 737L192 737L147 792L103 737L9 737Z"  horiz-adv-x="256" vert-adv-y="1000"  />

      
      <glyph glyph-name="uni0135" unicode="&#x0135;" d="M10 100Q19 99 29 99Q39 99 48 99Q74 99 92.50 112Q111 125 111 166L111 700L221 700L221 174Q221 121 208 87Q195 53 173 33.50Q151 14 122.50 6Q94-2 63-2Q48-2 36-2Q24-2 10 0L10 100M9 737L98 848L197 848L286 737L192 737L147 792L103 737L9 737Z"  horiz-adv-x="256" vert-adv-y="1000"  />

      
      <glyph glyph-name="uni0136" unicode="&#x0136;" d="M184 279L150 215L150 0L40 0L40 700L150 700L150 395L294 700L404 700L251 388L404 0L291 0L184 279M169-125L169-33L261-33L261-115L218-179L179-179L205-125L169-125Z"  horiz-adv-x="414" vert-adv-y="1000"  />

      
      <glyph glyph-name="uni0137" unicode="&#x0137;" d="M184 279L150 215L150 0L40 0L40 700L150 700L150 395L294 700L404 700L251 388L404 0L291 0L184 279M169-125L169-33L261-33L261-115L218-179L179-179L205-125L169-125Z"  horiz-adv-x="414" vert-adv-y="1000"  />

      
      <glyph glyph-name="uni0138" unicode="&#x0138;" d="M184 279L150 215L150 0L40 0L40 700L150 700L150 395L294 700L404 700L251 388L404 0L291 0L184 279Z"  horiz-adv-x="414" vert-adv-y="1000"  />

      
      <glyph glyph-name="uni0139" unicode="&#x0139;" d="M40 700L150 700L150 100L331 100L331 0L40 0L40 700M248 848L146 737L72 737L140 848L248 848Z"  horiz-adv-x="339" vert-adv-y="1000"  />

      
      <glyph glyph-name="uni013A" unicode="&#x013A;" d="M40 700L150 700L150 100L331 100L331 0L40 0L40 700M248 848L146 737L72 737L140 848L248 848Z"  horiz-adv-x="339" vert-adv-y="1000"  />

      
      <glyph glyph-name="uni013B" unicode="&#x013B;" d="M40 700L150 700L150 100L331 100L331 0L40 0L40 700M140-125L140-33L232-33L232-115L189-179L150-179L176-125L140-125Z"  horiz-adv-x="339" vert-adv-y="1000"  />

      
      <glyph glyph-name="uni013C" unicode="&#x013C;" d="M40 700L150 700L150 100L331 100L331 0L40 0L40 700M140-125L140-33L232-33L232-115L189-179L150-179L176-125L140-125Z"  horiz-adv-x="339" vert-adv-y="1000"  />

      
      <glyph glyph-name="uni013D" unicode="&#x013D;" d="M40 700L150 700L150 100L331 100L331 0L40 0L40 700M211 594L211 700L317 700L317 605L269 494L224 494L253 594L211 594Z"  horiz-adv-x="339" vert-adv-y="1000"  />

      
      <glyph glyph-name="uni013E" unicode="&#x013E;" d="M40 700L150 700L150 100L331 100L331 0L40 0L40 700M211 594L211 700L317 700L317 605L269 494L224 494L253 594L211 594Z"  horiz-adv-x="339" vert-adv-y="1000"  />

      
      <glyph glyph-name="uni013F" unicode="&#x013F;" d="M40 700L150 700L150 100L331 100L331 0L40 0L40 700M316 403L316 297L210 297L210 403L316 403Z"  horiz-adv-x="339" vert-adv-y="1000"  />

      
      <glyph glyph-name="uni0140" unicode="&#x0140;" d="M40 700L150 700L150 100L331 100L331 0L40 0L40 700M316 403L316 297L210 297L210 403L316 403Z"  horiz-adv-x="339" vert-adv-y="1000"  />

      
      <glyph glyph-name="uni0141" unicode="&#x0141;" d="M0 195L49 247L49 700L159 700L159 365L280 495L280 395L159 265L159 100L340 100L340 0L49 0L49 147L0 95L0 195Z"  horiz-adv-x="348" vert-adv-y="1000"  />

      
      <glyph glyph-name="uni0142" unicode="&#x0142;" d="M0 195L49 247L49 700L159 700L159 365L280 495L280 395L159 265L159 100L340 100L340 0L49 0L49 147L0 95L0 195Z"  horiz-adv-x="348" vert-adv-y="1000"  />

      
      <glyph glyph-name="uni0143" unicode="&#x0143;" d="M138 507L138 0L39 0L39 700L177 700L290 281L290 700L388 700L388 0L275 0L138 507M331 848L229 737L155 737L223 848L331 848Z"  horiz-adv-x="427" vert-adv-y="1000"  />

      
      <glyph glyph-name="uni0144" unicode="&#x0144;" d="M138 507L138 0L39 0L39 700L177 700L290 281L290 700L388 700L388 0L275 0L138 507M331 848L229 737L155 737L223 848L331 848Z"  horiz-adv-x="427" vert-adv-y="1000"  />

      
      <glyph glyph-name="uni0145" unicode="&#x0145;" d="M138 507L138 0L39 0L39 700L177 700L290 281L290 700L388 700L388 0L275 0L138 507M167-125L167-33L259-33L259-115L216-179L177-179L203-125L167-125Z"  horiz-adv-x="427" vert-adv-y="1000"  />

      
      <glyph glyph-name="uni0146" unicode="&#x0146;" d="M138 507L138 0L39 0L39 700L177 700L290 281L290 700L388 700L388 0L275 0L138 507M167-125L167-33L259-33L259-115L216-179L177-179L203-125L167-125Z"  horiz-adv-x="427" vert-adv-y="1000"  />

      
      <glyph glyph-name="uni0147" unicode="&#x0147;" d="M138 507L138 0L39 0L39 700L177 700L290 281L290 700L388 700L388 0L275 0L138 507M169 848L213 792L258 848L352 848L263 737L164 737L75 848L169 848Z"  horiz-adv-x="427" vert-adv-y="1000"  />

      
      <glyph glyph-name="uni0148" unicode="&#x0148;" d="M138 507L138 0L39 0L39 700L177 700L290 281L290 700L388 700L388 0L275 0L138 507M169 848L213 792L258 848L352 848L263 737L164 737L75 848L169 848Z"  horiz-adv-x="427" vert-adv-y="1000"  />

      
      <glyph glyph-name="uni0149" unicode="&#x0149;" d="M254 507L254 0L155 0L155 700L293 700L406 281L406 700L504 700L504 0L391 0L254 507M5 594L5 700L111 700L111 605L63 494L18 494L47 594L5 594Z"  horiz-adv-x="543" vert-adv-y="1000"  />

      
      <glyph glyph-name="uni014C" unicode="&#x014C;" d="M141 161Q141 123 156.50 107.50Q172 92 198 92Q224 92 239.50 107.50Q255 123 255 161L255 539Q255 577 239.50 592.50Q224 608 198 608Q172 608 156.50 592.50Q141 577 141 539L141 161M31 532Q31 617 74 662.50Q117 708 198 708Q279 708 322 662.50Q365 617 365 532L365 168Q365 83 322 37.50Q279-8 198-8Q117-8 74 37.50Q31 83 31 168L31 532M313 819L313 741L83 741L83 819L313 819Z"  horiz-adv-x="396" vert-adv-y="1000"  />

      
      <glyph glyph-name="uni014D" unicode="&#x014D;" d="M141 161Q141 123 156.50 107.50Q172 92 198 92Q224 92 239.50 107.50Q255 123 255 161L255 539Q255 577 239.50 592.50Q224 608 198 608Q172 608 156.50 592.50Q141 577 141 539L141 161M31 532Q31 617 74 662.50Q117 708 198 708Q279 708 322 662.50Q365 617 365 532L365 168Q365 83 322 37.50Q279-8 198-8Q117-8 74 37.50Q31 83 31 168L31 532M313 819L313 741L83 741L83 819L313 819Z"  horiz-adv-x="396" vert-adv-y="1000"  />

      
      <glyph glyph-name="uni014E" unicode="&#x014E;" d="M141 161Q141 123 156.50 107.50Q172 92 198 92Q224 92 239.50 107.50Q255 123 255 161L255 539Q255 577 239.50 592.50Q224 608 198 608Q172 608 156.50 592.50Q141 577 141 539L141 161M31 532Q31 617 74 662.50Q117 708 198 708Q279 708 322 662.50Q365 617 365 532L365 168Q365 83 322 37.50Q279-8 198-8Q117-8 74 37.50Q31 83 31 168L31 532M310 848Q310 795 282 764Q254 733 197 733Q140 733 113.50 764Q87 795 86 848L151 848Q153 819 164.50 810Q176 801 197 801Q219 801 231 810Q243 819 245 848L310 848Z"  horiz-adv-x="396" vert-adv-y="1000"  />

      
      <glyph glyph-name="uni014F" unicode="&#x014F;" d="M141 161Q141 123 156.50 107.50Q172 92 198 92Q224 92 239.50 107.50Q255 123 255 161L255 539Q255 577 239.50 592.50Q224 608 198 608Q172 608 156.50 592.50Q141 577 141 539L141 161M31 532Q31 617 74 662.50Q117 708 198 708Q279 708 322 662.50Q365 617 365 532L365 168Q365 83 322 37.50Q279-8 198-8Q117-8 74 37.50Q31 83 31 168L31 532M310 848Q310 795 282 764Q254 733 197 733Q140 733 113.50 764Q87 795 86 848L151 848Q153 819 164.50 810Q176 801 197 801Q219 801 231 810Q243 819 245 848L310 848Z"  horiz-adv-x="396" vert-adv-y="1000"  />

      
      <glyph glyph-name="uni0150" unicode="&#x0150;" d="M141 161Q141 123 156.50 107.50Q172 92 198 92Q224 92 239.50 107.50Q255 123 255 161L255 539Q255 577 239.50 592.50Q224 608 198 608Q172 608 156.50 592.50Q141 577 141 539L141 161M31 532Q31 617 74 662.50Q117 708 198 708Q279 708 322 662.50Q365 617 365 532L365 168Q365 83 322 37.50Q279-8 198-8Q117-8 74 37.50Q31 83 31 168L31 532M232 848L149 737L82 737L132 848L232 848M363 848L279 737L213 737L262 848L363 848Z"  horiz-adv-x="396" vert-adv-y="1000"  />

      
      <glyph glyph-name="uni0151" unicode="&#x0151;" d="M141 161Q141 123 156.50 107.50Q172 92 198 92Q224 92 239.50 107.50Q255 123 255 161L255 539Q255 577 239.50 592.50Q224 608 198 608Q172 608 156.50 592.50Q141 577 141 539L141 161M31 532Q31 617 74 662.50Q117 708 198 708Q279 708 322 662.50Q365 617 365 532L365 168Q365 83 322 37.50Q279-8 198-8Q117-8 74 37.50Q31 83 31 168L31 532M232 848L149 737L82 737L132 848L232 848M363 848L279 737L213 737L262 848L363 848Z"  horiz-adv-x="396" vert-adv-y="1000"  />

      
      <glyph glyph-name="uni0152" unicode="&#x0152;" d="M368 405L519 405L519 305L368 305L368 100L558 100L558 0L194 0Q111 0 70.50 44Q30 88 30 173L30 527Q30 612 70.50 656Q111 700 194 700L558 700L558 600L368 600L368 405M258 600L196 600Q170 600 155 585Q140 570 140 532L140 168Q140 130 155 115Q170 100 196 100L258 100L258 600Z"  horiz-adv-x="586" vert-adv-y="1000"  />

      
      <glyph glyph-name="uni0153" unicode="&#x0153;" d="M368 405L519 405L519 305L368 305L368 100L558 100L558 0L194 0Q111 0 70.50 44Q30 88 30 173L30 527Q30 612 70.50 656Q111 700 194 700L558 700L558 600L368 600L368 405M258 600L196 600Q170 600 155 585Q140 570 140 532L140 168Q140 130 155 115Q170 100 196 100L258 100L258 600Z"  horiz-adv-x="586" vert-adv-y="1000"  />

      
      <glyph glyph-name="uni0154" unicode="&#x0154;" d="M270 0Q268 7 266 13Q264 19 262.50 28Q261 37 260.50 51Q260 65 260 86L260 196Q260 245 243 265Q226 285 188 285L150 285L150 0L40 0L40 700L206 700Q292 700 330.50 660Q369 620 369 539L369 484Q369 376 297 342Q339 325 354.50 286.50Q370 248 370 193L370 85Q370 59 372 39.50Q374 20 382 0L270 0M150 600L150 385L193 385Q224 385 241.50 401Q259 417 259 459L259 528Q259 566 245.50 583Q232 600 203 600L150 600M313 848L211 737L137 737L205 848L313 848Z"  horiz-adv-x="402" vert-adv-y="1000"  />

      
      <glyph glyph-name="uni0155" unicode="&#x0155;" d="M270 0Q268 7 266 13Q264 19 262.50 28Q261 37 260.50 51Q260 65 260 86L260 196Q260 245 243 265Q226 285 188 285L150 285L150 0L40 0L40 700L206 700Q292 700 330.50 660Q369 620 369 539L369 484Q369 376 297 342Q339 325 354.50 286.50Q370 248 370 193L370 85Q370 59 372 39.50Q374 20 382 0L270 0M150 600L150 385L193 385Q224 385 241.50 401Q259 417 259 459L259 528Q259 566 245.50 583Q232 600 203 600L150 600M313 848L211 737L137 737L205 848L313 848Z"  horiz-adv-x="402" vert-adv-y="1000"  />

      
      <glyph glyph-name="uni0156" unicode="&#x0156;" d="M270 0Q268 7 266 13Q264 19 262.50 28Q261 37 260.50 51Q260 65 260 86L260 196Q260 245 243 265Q226 285 188 285L150 285L150 0L40 0L40 700L206 700Q292 700 330.50 660Q369 620 369 539L369 484Q369 376 297 342Q339 325 354.50 286.50Q370 248 370 193L370 85Q370 59 372 39.50Q374 20 382 0L270 0M150 600L150 385L193 385Q224 385 241.50 401Q259 417 259 459L259 528Q259 566 245.50 583Q232 600 203 600L150 600M157-125L157-33L249-33L249-115L206-179L167-179L193-125L157-125Z"  horiz-adv-x="402" vert-adv-y="1000"  />

      
      <glyph glyph-name="uni0157" unicode="&#x0157;" d="M270 0Q268 7 266 13Q264 19 262.50 28Q261 37 260.50 51Q260 65 260 86L260 196Q260 245 243 265Q226 285 188 285L150 285L150 0L40 0L40 700L206 700Q292 700 330.50 660Q369 620 369 539L369 484Q369 376 297 342Q339 325 354.50 286.50Q370 248 370 193L370 85Q370 59 372 39.50Q374 20 382 0L270 0M150 600L150 385L193 385Q224 385 241.50 401Q259 417 259 459L259 528Q259 566 245.50 583Q232 600 203 600L150 600M157-125L157-33L249-33L249-115L206-179L167-179L193-125L157-125Z"  horiz-adv-x="402" vert-adv-y="1000"  />

      
      <glyph glyph-name="uni0158" unicode="&#x0158;" d="M270 0Q268 7 266 13Q264 19 262.50 28Q261 37 260.50 51Q260 65 260 86L260 196Q260 245 243 265Q226 285 188 285L150 285L150 0L40 0L40 700L206 700Q292 700 330.50 660Q369 620 369 539L369 484Q369 376 297 342Q339 325 354.50 286.50Q370 248 370 193L370 85Q370 59 372 39.50Q374 20 382 0L270 0M150 600L150 385L193 385Q224 385 241.50 401Q259 417 259 459L259 528Q259 566 245.50 583Q232 600 203 600L150 600M150 848L194 792L239 848L333 848L244 737L145 737L56 848L150 848Z"  horiz-adv-x="402" vert-adv-y="1000"  />

      
      <glyph glyph-name="uni0159" unicode="&#x0159;" d="M270 0Q268 7 266 13Q264 19 262.50 28Q261 37 260.50 51Q260 65 260 86L260 196Q260 245 243 265Q226 285 188 285L150 285L150 0L40 0L40 700L206 700Q292 700 330.50 660Q369 620 369 539L369 484Q369 376 297 342Q339 325 354.50 286.50Q370 248 370 193L370 85Q370 59 372 39.50Q374 20 382 0L270 0M150 600L150 385L193 385Q224 385 241.50 401Q259 417 259 459L259 528Q259 566 245.50 583Q232 600 203 600L150 600M150 848L194 792L239 848L333 848L244 737L145 737L56 848L150 848Z"  horiz-adv-x="402" vert-adv-y="1000"  />

      
      <glyph glyph-name="uni015A" unicode="&#x015A;" d="M26 532Q26 617 66.50 662.50Q107 708 188 708Q269 708 309.50 662.50Q350 617 350 532L350 510L246 510L246 539Q246 577 231.50 592.50Q217 608 191 608Q165 608 150.50 592.50Q136 577 136 539Q136 503 152 475.50Q168 448 192 423.50Q216 399 243.50 374.50Q271 350 295 321Q319 292 335 255Q351 218 351 168Q351 83 309.50 37.50Q268-8 187-8Q106-8 64.50 37.50Q23 83 23 168L23 211L127 211L127 161Q127 123 142.50 108Q158 93 184 93Q210 93 225.50 108Q241 123 241 161Q241 197 225 224.50Q209 252 185 276.50Q161 301 133.50 325.50Q106 350 82 379Q58 408 42 445Q26 482 26 532M305 848L203 737L129 737L197 848L305 848Z"  horiz-adv-x="374" vert-adv-y="1000"  />

      
      <glyph glyph-name="uni015B" unicode="&#x015B;" d="M26 532Q26 617 66.50 662.50Q107 708 188 708Q269 708 309.50 662.50Q350 617 350 532L350 510L246 510L246 539Q246 577 231.50 592.50Q217 608 191 608Q165 608 150.50 592.50Q136 577 136 539Q136 503 152 475.50Q168 448 192 423.50Q216 399 243.50 374.50Q271 350 295 321Q319 292 335 255Q351 218 351 168Q351 83 309.50 37.50Q268-8 187-8Q106-8 64.50 37.50Q23 83 23 168L23 211L127 211L127 161Q127 123 142.50 108Q158 93 184 93Q210 93 225.50 108Q241 123 241 161Q241 197 225 224.50Q209 252 185 276.50Q161 301 133.50 325.50Q106 350 82 379Q58 408 42 445Q26 482 26 532M305 848L203 737L129 737L197 848L305 848Z"  horiz-adv-x="374" vert-adv-y="1000"  />

      
      <glyph glyph-name="uni015C" unicode="&#x015C;" d="M26 532Q26 617 66.50 662.50Q107 708 188 708Q269 708 309.50 662.50Q350 617 350 532L350 510L246 510L246 539Q246 577 231.50 592.50Q217 608 191 608Q165 608 150.50 592.50Q136 577 136 539Q136 503 152 475.50Q168 448 192 423.50Q216 399 243.50 374.50Q271 350 295 321Q319 292 335 255Q351 218 351 168Q351 83 309.50 37.50Q268-8 187-8Q106-8 64.50 37.50Q23 83 23 168L23 211L127 211L127 161Q127 123 142.50 108Q158 93 184 93Q210 93 225.50 108Q241 123 241 161Q241 197 225 224.50Q209 252 185 276.50Q161 301 133.50 325.50Q106 350 82 379Q58 408 42 445Q26 482 26 532M48 737L137 848L236 848L325 737L231 737L186 792L142 737L48 737Z"  horiz-adv-x="374" vert-adv-y="1000"  />

      
      </font>
</defs>
</svg>
